\m/ 80's metal \m/

Информационно-аналитический форум "80 см пыли" (In Search We Trust) "У нас никто никуда не спешит"
Me For You - http://me-4u.com
It is currently 25 Sep 2021

All times are UTC + 3 hours

Spoiler
Chat - temporary registration for foreign users (please leave your application here)







Post new topic Reply to topic  [ 10 posts ] 
Author Message
 
PostPosted: 03 May 2020 
Rara avis
User avatar
Joined: 27 Jan 2009
Posts: 5890
Name: .
Листала я форум Эмиля и наткнулась на запрос этой группы. Удалось мне найти лишь несколько песен в ВК.
Стало интересно, найдётся ли у нас :umnik:

Jinn - Время Идёт
Image

1. Высоко над горами
2. На кресте
3. Звезда
4. Время идёт
5. Снова я один
6. Патриот
7. Храброе сердце
8. Я плачу
9. Враг мой

https://www.discogs.com/Jinn-Время-Идёт/release/5261824


Top
 Profile E-mail  
 
 
PostPosted: 06 Sep 2021 
Rara avis
User avatar
Joined: 27 Jan 2009
Posts: 5890
Name: .
https://heavymetalrarities.com/forum/vi ... 68#p216668 :dance:


Top
 Profile E-mail  
 
 
PostPosted: 06 Sep 2021 
Хиппей (support team)
User avatar
Joined: 30 Jul 2007
Posts: 122705
Lоcаtion: Киев (Kyiv, UA)
Age: 48
Name: Andrey
:thanx:

mirror: TG l Ur l Ul l Ml

_________________


Top
 Profile E-mail  
 
 
PostPosted: 06 Sep 2021 
Хиппей (support team)
User avatar
Joined: 30 Jul 2007
Posts: 122705
Lоcаtion: Киев (Kyiv, UA)
Age: 48
Name: Andrey
Как быстро пролетели 10 лет :dance:

_________________


Top
 Profile E-mail  
 
 
PostPosted: 07 Sep 2021 
Персональный статус
User avatar
Joined: 13 Mar 2013
Posts: 211
Lоcаtion: Россия
Name: Виталий
https://rutracker.org/forum/viewtopic.php?t=6079971 с Bonus Track


Top
 Profile E-mail  
 
 
PostPosted: 07 Sep 2021 
Хиппей (support team)
User avatar
Joined: 30 Jul 2007
Posts: 122705
Lоcаtion: Киев (Kyiv, UA)
Age: 48
Name: Andrey
:thanx:

TG l Ur l Ul l Ml

Image Image

Image Image

log
Exact Audio Copy V1.6 from 23. October 2020

EAC extraction logfile from 11. July 2021, 13:31

Jinn / Время идёт

Used drive : HL-DT-STDVDRRW GSA-2166D Adapter: 1 ID: 0

Read mode : Secure
Utilize accurate stream : Yes
Defeat audio cache : Yes
Make use of C2 pointers : No

Read offset correction : 102
Overread into Lead-In and Lead-Out : No
Fill up missing offset samples with silence : Yes
Delete leading and trailing silent blocks : No
Null samples used in CRC calculations : Yes
Used interface : Native Win32 interface for Win NT & 2000

Used output format : User Defined Encoder
Selected bitrate : 768 kBit/s
Quality : High
Add ID3 tag : No
Command line compressor : C:\Program Files (x86)\Exact Audio Copy\FLAC\FLAC.EXE
Additional command line options : -6 -V -T "ARTIST=%artist%" -T "TITLE=%title%" -T "ALBUM=%albumtitle%" -T "DATE=%year%" -T "TRACKNUMBER=%tracknr%" -T "GENRE=%genre%" -T "COMMENT=%comment%" -T "BAND=%albuminterpret%" -T "ALBUMARTIST=%albuminterpret%" -T "COMPOSER=%composer%" %haslyrics%--tag-from-file=LYRICS="%lyricsfile%"%haslyrics% -T "DISCNUMBER=%cdnumber%" -T "TOTALDISCS=%totalcds%" -T "TOTALTRACKS=%numtracks%" %hascover%--picture="%coverfile%"%hascover% %source% -o %dest%


TOC of the extracted CD

Track | Start | Length | Start sector | End sector
---------------------------------------------------------
1 | 0:00.00 | 5:00.04 | 0 | 22503
2 | 5:00.04 | 4:01.30 | 22504 | 40608
3 | 9:01.34 | 5:46.68 | 40609 | 66626
4 | 14:48.27 | 6:52.46 | 66627 | 97572
5 | 21:40.73 | 6:44.73 | 97573 | 127945
6 | 28:25.71 | 4:53.50 | 127946 | 149970
7 | 33:19.46 | 5:36.37 | 149971 | 175207
8 | 38:56.08 | 6:22.04 | 175208 | 203861
9 | 45:18.12 | 5:36.22 | 203862 | 229083
10 | 50:54.34 | 3:15.65 | 229084 | 243773
11 | 54:10.24 | 3:47.50 | 243774 | 260848
12 | 57:57.74 | 4:09.21 | 260849 | 279544


Range status and errors

Selected range

Filename C:\Users\Чебурек\Downloads\Jinn - Время идёт (2003)\Jinn - Время идёт.wav

Peak level 98.8 %
Extraction speed 2.9 X
Range quality 100.0 %
Test CRC 516A7BF4
Copy CRC 516A7BF4
Copy OK

No errors occurred


AccurateRip summary

Track 1 not present in database
Track 2 not present in database
Track 3 not present in database
Track 4 not present in database
Track 5 not present in database
Track 6 not present in database
Track 7 not present in database
Track 8 not present in database
Track 9 not present in database
Track 10 not present in database
Track 11 not present in database
Track 12 not present in database

None of the tracks are present in the AccurateRip database

End of status report

---- CUETools DB Plugin V2.1.6

[CTDB TOCID: OaalK22KmwRu3v9UlUnRUHglHq4-] disk not present in database
Submit result: OaalK22KmwRu3v9UlUnRUHglHq4- has been uploaded


==== Log checksum 28577865A367859CADC989B5219F2B65833944A6677589275A44BD6C7EBF4316 ====

cue
REM GENRE "Heavy Metal"
REM DATE 2003
REM DISCID 880E8F0C
REM COMMENT "ExactAudioCopy v1.6"
PERFORMER "Jinn"
TITLE "Время идёт"
REM COMPOSER ""
FILE "Jinn - Время идёт.flac" WAVE
TRACK 01 AUDIO
TITLE "Высоко над горами"
PERFORMER "Jinn"
REM COMPOSER ""
FLAGS DCP
INDEX 01 00:00:00
TRACK 02 AUDIO
TITLE "На кресте"
PERFORMER "Jinn"
REM COMPOSER ""
FLAGS DCP
INDEX 01 05:00:04
TRACK 03 AUDIO
TITLE "Звезда"
PERFORMER "Jinn"
REM COMPOSER ""
FLAGS DCP
INDEX 01 09:01:34
TRACK 04 AUDIO
TITLE "Время идёт"
PERFORMER "Jinn"
REM COMPOSER ""
FLAGS DCP
INDEX 01 14:48:27
TRACK 05 AUDIO
TITLE "Снова я один"
PERFORMER "Jinn"
REM COMPOSER ""
FLAGS DCP
INDEX 01 21:40:73
TRACK 06 AUDIO
TITLE "Патриот"
PERFORMER "Jinn"
REM COMPOSER ""
FLAGS DCP
INDEX 01 28:25:71
TRACK 07 AUDIO
TITLE "Храброе сердце"
PERFORMER "Jinn"
REM COMPOSER ""
FLAGS DCP
INDEX 01 33:19:46
TRACK 08 AUDIO
TITLE "Я плачу"
PERFORMER "Jinn"
REM COMPOSER ""
FLAGS DCP
INDEX 01 38:56:08
TRACK 09 AUDIO
TITLE "Враг мой"
PERFORMER "Jinn"
REM COMPOSER ""
FLAGS DCP
INDEX 01 45:18:12
TRACK 10 AUDIO
TITLE "Шторм (Bonus Track)"
PERFORMER "Jinn"
REM COMPOSER ""
FLAGS DCP
INDEX 01 50:54:34
TRACK 11 AUDIO
TITLE "Мега зло (Bonus Track)"
PERFORMER "Jinn"
REM COMPOSER ""
FLAGS DCP
INDEX 01 54:10:24
TRACK 12 AUDIO
TITLE "Джинн (Bonus Track)"
PERFORMER "Jinn"
REM COMPOSER ""
FLAGS DCP
INDEX 01 57:57:74

_________________


Top
 Profile E-mail  
 
 
PostPosted: 14 Sep 2021 
Хиппей (support team)
User avatar
Joined: 30 Jul 2007
Posts: 122705
Lоcаtion: Киев (Kyiv, UA)
Age: 48
Name: Andrey
Очень добротный альбом с актуальной и толковой лирикой на русском языке и достойным музыкальным сопровождением.

Только басист всё равно играет трэш :tro:

Так понимаю, это по сути гитариста и одновременно вокалиста и автора музыки и слов проект?
Который умер в 2009-м..

6+/10

Quote:
JINN был создан в 1997 году и обозначил свой стиль как Heavy Metal. До 2000 года в группе сменилось несколько музыкантов. С 2000 года группа стабильна.
В 2001 году группа начала очень активную концертную деятельность. Группа приняла участие в ряде концертов, организовала большое количество концертов и сессий. У группы накоплен большой опыт в организации концертов.
В августе 2004 года группа успешно приняла участие в международном рок-фестивале в Украине и получила первую премию.

https://www.metal-archives.com/bands/Jinn/43874

Шесть раз в двух строчках слово "группа" упомянуто" :fingal:

_________________


Top
 Profile E-mail  
 
 
PostPosted: 24 Sep 2021 
Персональный статус
User avatar
Joined: 13 Mar 2013
Posts: 211
Lоcаtion: Россия
Name: Виталий
Диск является большой редкостью; фактичеки Cdr (болванкой ), песни : штурм ,мега зло , джинн являются бонусами ,записывались не во время записи альбома . Jinn - таджикская андеграундная группа из Душанбе.
В 2003 году был записан альбом "Время идёт".
Впервые засветились в 2004 году, в крымском городе Херсон на фестивале “Премьера” выйграли “Гран-при” из рук российских, украинских, белорусских и молдавских рок-музыкантов. Затем, в Екатеринбурге на фесте “Старый новый рок” выступили на одной сцене с такими известными группами, как “Агата Кристи” и “Ария”.
В 2007 году группа “Jinn” выступила на Международном рок-фестивале “Воздух” в Республике Карелия. В Карелии на протяжении трех дней на двух сценах выступили около сорока рок-групп из России, Беларуси, Германии, Финляндии, Норвегии и др. Центральную Азию представляли лишь они.
26 мая 2009 трагически умер гитарист и вокалист группы Мардон Камалов. Очевидцы комментируют его смерть так: "Мардон профессиональный летчик, штурман воздушного судна. Экипаж был в загранпоездке в Иране, Мардон, как и полагается штурману, пришел на борт самолета первым, чтобы проверить работоспособность систем и пр. Когда на борт поднялись другие члены экипажа, они увидели, что Мардон заснул на своем кресле… спустя некоторое время, один из членов экипажа окликнул его, предупреждая о скором вылете. Мардон не отреагировал, это насторожило лечиков. Мардон был без сознания…"


Top
 Profile E-mail  
 
 
PostPosted: 24 Sep 2021 
Персональный статус
User avatar
Joined: 13 Mar 2013
Posts: 211
Lоcаtion: Россия
Name: Виталий
:arrow: https://www.realrocks.ru/jinn/


Top
 Profile E-mail  
 
 
PostPosted: 24 Sep 2021 
Хиппей (support team)
User avatar
Joined: 30 Jul 2007
Posts: 122705
Lоcаtion: Киев (Kyiv, UA)
Age: 48
Name: Andrey
Quote:
Время, как все же много оно значит, как быстро пролетает порой и как долго тянется в других обстоятельствах...

Вызвав скорую, Мардона отвезли в одину из больниц, в реанимационное отделение. Около получаса врачи пытались вернуть Мардона в сознание, когда это не удалось, было принято решение перевезти его в другую клинику, но времени уже не хватило

http://forum.rrock.ru/index.php?s=7b18e ... t&p=503503

_________________


Top
 Profile E-mail  
 
Display posts from previous:  Sort by  
Post new topic Reply to topic  [ 10 posts ] 

All times are UTC + 3 hours


Who is online

Users browsing this forum: No registered users and 1 guest


You cannot post new topics in this forum
You cannot reply to topics in this forum
You cannot edit your posts in this forum
You cannot delete your posts in this forum

Search for:
Яндекс.Метрика
Powered by phpBB © 2000, 2002, 2005, 2007 phpBB Group