\m/ 80's metal \m/

Информационно-аналитический форум "80 см пыли" (In Search We Trust) "У нас никто никуда не спешит"
Me For You - http://me-4u.com
It is currently 10 Jul 2020

All times are UTC + 3 hours

Spoiler
Chat - temporary registration for foreign users (please leave your application here)







Post new topic Reply to topic  [ 13 posts ] 
Author Message
 
PostPosted: 23 Jun 2018 
А может смените мне статус?..
Joined: 11 Sep 2010
Posts: 596
Lоcаtion: Тверь
Age: 47
Name: Сергей
[reqs] Sweet Addiction
https://www.discogs.com/artist/1034318-Sweet-Addiction
UK.
Bass – Joe Johnson
Drums – Gavin Johns
Guitar – Dave Airey
Vocals – Matt Wolff

Sweet Addiction – All I Wanted To Do [EP] (1990)

01-All I Wanted To Do
02-Broken Bottles (Live)
03-Off The Cuff
04-Before It Shows (Studio Jam)

Image

Sweet Addiction – Caught On A Line [single] (1990)
01-Caught On A Line (Full Length)
02-Hurt This Way (Acoustic)
03-I'm Doin' Fine (For S.R.V.)


Image

Sweet Addiction – Enough Is Enough [single] (1991)

01-Enough Is Enough (Full Length Version)
02-The Seeker
03-Sympathy

Image


Top
 Profile E-mail  
 
 
PostPosted: 23 Jun 2018 
А может смените мне статус?..
Joined: 11 Sep 2010
Posts: 596
Lоcаtion: Тверь
Age: 47
Name: Сергей
https://www.youtube.com/watch?time_cont ... wHEBMSGCAI


Top
 Profile E-mail  
 
 
PostPosted: 23 Jun 2018 
А может смените мне статус?..
Joined: 11 Sep 2010
Posts: 596
Lоcаtion: Тверь
Age: 47
Name: Сергей
Может кто-нибудь написать вокалисту?
http://www.mattwolff.co.uk/contact.html


Top
 Profile E-mail  
 
 
PostPosted: 23 Jun 2018 
Rara avis
User avatar
Joined: 27 Jan 2009
Posts: 5653
Name: .
Написала.
Но если что, то диски по $1 есть ;)


Top
 Profile E-mail  
 
 
PostPosted: 23 Jun 2018 
Хиппей (support team)
User avatar
Joined: 30 Jul 2007
Posts: 118961
Lоcаtion: Киев (Kyiv, UA)
Age: 47
Name: Andrey
Просьба оформлять запрос (название темы) по правильным правилам :arrow: viewforum.php?f=3
Или разницу не видно пока? :scratch:

_________________


Top
 Profile E-mail  
 
 
PostPosted: 03 Sep 2019 
Работнечег
User avatar
Joined: 28 Aug 2007
Posts: 6325
Lоcаtion: г. Москва
Age: 31
Name: Дима
Серег напиши мне на почту, если есть желание скинуться немного на эти диски, а то я тебе пишу, а твой почтовый ящик отбивает мои письма.


Top
 Profile E-mail  
 
 
PostPosted: 17 Jan 2020 
Работнечег
User avatar
Joined: 28 Aug 2007
Posts: 6325
Lоcаtion: г. Москва
Age: 31
Name: Дима
Sweet Addiction – Caught On A Line (Single)(1990) CD-version FLAC

Image

Tracklist:
1. Caught On A Line (7") 4:08
2. Hurt This Way (Acoustic) 5:35
3. I'm Doun' Fine (For S.R.V.) 3:33
4. Caught On A Line (Full Length) 6:13

LOG
Exact Audio Copy V1.3 from 2. September 2016

EAC extraction logfile from 13. October 2019, 18:31

Sweet Addiction / Caught On A Line (Single)

Used drive : PIONEER DVD-RW DVR-221 Adapter: 1 ID: 0

Read mode : Secure
Utilize accurate stream : Yes
Defeat audio cache : Yes
Make use of C2 pointers : No

Read offset correction : 6
Overread into Lead-In and Lead-Out : No
Fill up missing offset samples with silence : Yes
Delete leading and trailing silent blocks : No
Null samples used in CRC calculations : Yes
Used interface : Native Win32 interface for Win NT & 2000

Used output format : User Defined Encoder
Selected bitrate : 768 kBit/s
Quality : High
Add ID3 tag : No
Command line compressor : C:\Program Files (x86)\Exact Audio Copy\FLAC\FLAC.EXE
Additional command line options : -6 -V -T "ARTIST=%artist%" -T "TITLE=%title%" -T "ALBUM=%albumtitle%" -T "DATE=%year%" -T "TRACKNUMBER=%tracknr%" -T "GENRE=%genre%" -T "COMMENT=%comment%" -T "BAND=%albuminterpret%" -T "ALBUMARTIST=%albuminterpret%" -T "COMPOSER=%composer%" %haslyrics%--tag-from-file=LYRICS="%lyricsfile%"%haslyrics% -T "DISCNUMBER=%cdnumber%" -T "TOTALDISCS=%totalcds%" -T "TOTALTRACKS=%numtracks%" %hascover%--picture="%coverfile%"%hascover% %source% -o %dest%


TOC of the extracted CD

Track | Start | Length | Start sector | End sector
---------------------------------------------------------
1 | 0:00.00 | 4:07.42 | 0 | 18566
2 | 4:07.42 | 5:35.23 | 18567 | 43714
3 | 9:42.65 | 3:32.70 | 43715 | 59684
4 | 13:15.60 | 6:12.50 | 59685 | 87634


Range status and errors

Selected range

Filename D:\Музыка\Lossless\Sweet Addiction - Caught On A Line (Single)(1990)\Sweet Addiction - Caught On A Line (Single).wav

Peak level 100.0 %
Extraction speed 3.2 X
Range quality 100.0 %
Copy CRC 70F25975
Copy OK

No errors occurred


AccurateRip summary

Track 1 not present in database
Track 2 not present in database
Track 3 not present in database
Track 4 not present in database

None of the tracks are present in the AccurateRip database

End of status report

CUE
REM GENRE "Hard Rock"
REM DATE 1990
REM DISCID 39049004
REM COMMENT "ExactAudioCopy v1.3"
PERFORMER "Sweet Addiction"
TITLE "Caught On A Line (Single)"
REM COMPOSER ""
FILE "Sweet Addiction - Caught On A Line (Single).flac" WAVE
TRACK 01 AUDIO
TITLE "Caught On A Line (7'')"
PERFORMER "Sweet Addiction"
REM COMPOSER ""
INDEX 01 00:00:00
TRACK 02 AUDIO
TITLE "Hurt This Way (Acoustic)"
PERFORMER "Sweet Addiction"
REM COMPOSER ""
INDEX 00 04:05:55
INDEX 01 04:07:42
TRACK 03 AUDIO
TITLE "I'm Doun' Fine (For S.R.V.)"
PERFORMER "Sweet Addiction"
REM COMPOSER ""
INDEX 00 09:41:20
INDEX 01 09:42:65
TRACK 04 AUDIO
TITLE "Caught On A Line (Full Length)"
PERFORMER "Sweet Addiction"
REM COMPOSER ""
INDEX 00 13:13:47
INDEX 01 13:15:60


Yadi


Top
 Profile E-mail  
 
 
PostPosted: 17 Jan 2020 
Rara avis
User avatar
Joined: 27 Jan 2009
Posts: 5653
Name: .
:thanx:
Нашла остальные песни. Скоро залью


Top
 Profile E-mail  
 
 
PostPosted: 18 Jan 2020 
А может смените мне статус?..
Joined: 11 Sep 2010
Posts: 596
Lоcаtion: Тверь
Age: 47
Name: Сергей
Дима, спасибо большое за Sweet Addiction – Caught On A Line :thanx:


Top
 Profile E-mail  
 
 
PostPosted: 18 Jan 2020 
Rara avis
User avatar
Joined: 27 Jan 2009
Posts: 5653
Name: .
Спасибо Киссмару :thanx:
Запрос закрыт :dance:

Sweet Addiction - Various EP's
https://yadi.sk/d/9GBKL2EuV1gjkA


Top
 Profile E-mail  
 
 
PostPosted: 18 Jan 2020 
Хиппей (support team)
User avatar
Joined: 30 Jul 2007
Posts: 118961
Lоcаtion: Киев (Kyiv, UA)
Age: 47
Name: Andrey
:thanx:

_________________


Top
 Profile E-mail  
 
 
PostPosted: 19 Jan 2020 
А может смените мне статус?..
Joined: 11 Sep 2010
Posts: 596
Lоcаtion: Тверь
Age: 47
Name: Сергей
Даша :thanx:


Top
 Profile E-mail  
 
 
PostPosted: 21 Jan 2020 
А может смените мне статус?..
User avatar
Joined: 06 Sep 2007
Posts: 849
Lоcаtion: СПб
Age: 65
Name: Сергей
:thanx:


Top
 Profile  
 
Display posts from previous:  Sort by  
Post new topic Reply to topic  [ 13 posts ] 

All times are UTC + 3 hours


Who is online

Users browsing this forum: No registered users and 2 guests


You cannot post new topics in this forum
You cannot reply to topics in this forum
You cannot edit your posts in this forum
You cannot delete your posts in this forum
You cannot post attachments in this forum

Search for:
Яндекс.Метрика
Powered by phpBB © 2000, 2002, 2005, 2007 phpBB Group