\m/ 80's metal \m/

Информационно-аналитический форум "80 см пыли" (In Search We Trust) "У нас никто никуда не спешит"
Железнодорожная биржа - RailAgent
It is currently 20 Jul 2018

All times are UTC + 3 hours

Spoiler
Chat - temporary registration for foreign users (please leave your application here)







Post new topic Reply to topic  [ 11 posts ] 
Author Message
 
PostPosted: 26 Nov 2008 
Персональный статус
Joined: 15 Nov 2008
Posts: 285
Lоcаtion: прага
Age: 48
Name: .сергей
> Осталось найти: | Still looking:
RAVAGE-Black Horizon-1998 (Demo)
RAVAGE-Out of the Depths-1999
RAVAGE-The Wicked Way-2001


ищу EPишки американской группы :meloman: RAVAGE-Out of the Depths-1999,The Wicked Way-2001, Freedom Fighter-2008.вдруг у кого завалялись. :thanx: команда офигенная :true: , хэви в стиле 80-х.


Top
 Profile  
 
 
PostPosted: 27 Nov 2008 
Хиппей (support team)
User avatar
Joined: 30 Jul 2007
Posts: 105156
Lоcаtion: Киев (Kyiv, UA)
Age: 45
Name: Andrey
grin wrote:
хэви в стиле 80-х

С современным саундом, или все же полностью в духе 80-х? :oops:


Top
 Profile E-mail  
 
 
PostPosted: 27 Nov 2008 
Персональный статус
Joined: 15 Nov 2008
Posts: 285
Lоcаtion: прага
Age: 48
Name: .сергей
вот именно что что в стиле 80-х. их альбом 2005г. выпустил картаго рекордс! :umnik: ссылка на metal-archives .


Top
 Profile  
 
 
PostPosted: 27 Nov 2008 
Хиппей (support team)
User avatar
Joined: 30 Jul 2007
Posts: 105156
Lоcаtion: Киев (Kyiv, UA)
Age: 45
Name: Andrey
grin wrote:
картаго рекордс
:beee:
grin wrote:
вот именно что что в стиле 80-х

Ок, убедил, попробуем поискать. Хотя явно не редкость :pardon:
Quote:
Power/speed metal from Boston, sounding like a mix of Iron Maiden and Grave Digger.


Top
 Profile E-mail  
 
 
PostPosted: 25 Aug 2009 
Дежурный по КУПу
User avatar
Joined: 17 Aug 2007
Posts: 5869
Age: 50
Name: Ге
разыскивается альбом бостонских спидовиков

Ravage (US) - Black Horizon

Image

1. Black Horizon
2. Wake the Dead
3. Damage
4. Born to be Wild
5. Sharp Dressed Man
6. Ravage
7. Cain's Ladder
8. Shackled Youth
9. Rebel Yell
10. Grinder
11. Black Horizon
12. Wake the Dead
13. Damage
14. Know it All
15. Master of Evil
16. Speed Demons
17. Breaking the Law
18. Hail Satan
19. Fall of Man
20. Rite of the Night

http://www.metal-archives.com/band.php?id=679

_________________
http://jp-mania.ru/
http://jp-tourdates.ucoz.ru/


Top
 Profile  
 
 
PostPosted: 11 Feb 2010 
хард н хэвщик (support team)
User avatar
Joined: 02 Jun 2008
Posts: 16880
Lоcаtion: Н.Новгород
Age: 31
Name: Артем
grin wrote:
RAVAGE-The Wicked Way-2001
обнаружен на Тмаг.
Grin редкий ходок на форум. Нужен кому-нибудь еще этот альбом ?


Top
 Profile  
 
 
PostPosted: 11 Feb 2010 
спирт 100%
User avatar
Joined: 22 Sep 2008
Posts: 4244
Age: 46
Name: Саня
McKagan wrote:
Нужен кому-нибудь еще этот альбом ?

С удовольствием послушал бы , и этот тоже Ravage (US) - Black Horizon


Top
 Profile  
 
 
PostPosted: 12 Feb 2010 
хард н хэвщик (support team)
User avatar
Joined: 02 Jun 2008
Posts: 16880
Lоcаtion: Н.Новгород
Age: 31
Name: Артем
Image

Ravage (US) - Freedom Fighter (2008) [128] : ссылки в плохом качестве удалены к чертям подальше

качество такое, чтоб послушать и удалить


Top
 Profile  
 
 
PostPosted: 12 Feb 2010 
спирт 100%
User avatar
Joined: 22 Sep 2008
Posts: 4244
Age: 46
Name: Саня
McKagan wrote:
качество такое, чтоб послушать и удалить

Не чего, не поделаешь. Выбора нет. :pardon:
Артём , Спасибо!


Top
 Profile  
 
 
PostPosted: 12 Feb 2010 
А может смените мне статус?..
User avatar
Joined: 17 Jan 2008
Posts: 844
Lоcаtion: Пенза
Age: 40
Name: Денис
Ravage-Freedom Fighter [2008,EP, SWWR Production]

Image

APE+CUE+LOG 183 mb

log
Exact Audio Copy V0.99 prebeta 5 from 4. May 2009

EAC extraction logfile from 29. December 2009, 13:21

Ravage / Freedom Fighter

Used drive : Optiarc DVD RW AD-7203S Adapter: 0 ID: 0

Read mode : Secure
Utilize accurate stream : Yes
Defeat audio cache : Yes
Make use of C2 pointers : No

Combined read/write offset correction : 66
Overread into Lead-In and Lead-Out : No
Fill up missing offset samples with silence : Yes
Delete leading and trailing silent blocks : No
Null samples used in CRC calculations : Yes
Used interface : Installed external ASPI interface

Used output format : Monkey's Audio Lossless Encoder
Selected bitrate : Extra High Lossless Compression
Quality : High
Add ID3 tag : Yes
Command line compressor : C:\Program Files\Monkey's Audio\MAC.exe


TOC of the extracted CD

Track | Start | Length | Start sector | End sector
---------------------------------------------------------
1 | 0:00.00 | 4:47.41 | 0 | 21565
2 | 4:47.41 | 5:55.21 | 21566 | 48211
3 | 10:42.62 | 3:09.71 | 48212 | 62457
4 | 13:52.58 | 3:30.70 | 62458 | 78277
5 | 17:23.53 | 4:16.55 | 78278 | 97532
6 | 21:40.33 | 3:29.68 | 97533 | 113275


Range status and errors

Selected range

Filename D:\0\RAVAGE - 2008 - Freedom Fighter\Ravage - Freedom Fighter.wav

Peak level 100.0 %
Range quality 100.0 %
Copy CRC 7BE4916E
Copy OK

No errors occurred

End of status report


cue
REM GENRE "Power/Speed Metal"
REM DATE 2008
REM DISCID 4205E606
REM COMMENT "ExactAudioCopy v0.99pb5"
PERFORMER "Ravage"
TITLE "Freedom Fighter (ripped by Metallord)"
FILE "Ravage - Freedom Fighter (ripped by Metallord).wav" WAVE
TRACK 01 AUDIO
TITLE "Freedom Fighter"
PERFORMER "Ravage"
INDEX 01 00:00:00
TRACK 02 AUDIO
TITLE "Damn Nation"
PERFORMER "Ravage"
INDEX 01 04:47:41
TRACK 03 AUDIO
TITLE "The Shredder"
PERFORMER "Ravage"
INDEX 01 10:42:62
TRACK 04 AUDIO
TITLE "Grapes Of Wrath"
PERFORMER "Ravage"
INDEX 01 13:52:58
TRACK 05 AUDIO
TITLE "A Captive Of Sin"
PERFORMER "Ravage"
INDEX 01 17:23:53
TRACK 06 AUDIO
TITLE "Be Quick Or Be Dead"
PERFORMER "Ravage"
INDEX 01 21:40:33


http://www.megaupload.com/?d=CWHLZUZE

Все благодарности за рип,если мне память не отшибло,адрессовать парню по имени Явор(aka Metallord)


Top
 Profile  
 
 
PostPosted: 12 Feb 2010 
спирт 100%
User avatar
Joined: 22 Sep 2008
Posts: 4244
Age: 46
Name: Саня
Денис и тов. Явор , Спасибо!!! :thanx:


Top
 Profile  
 
Display posts from previous:  Sort by  
Post new topic Reply to topic  [ 11 posts ] 

All times are UTC + 3 hours


Who is online

Users browsing this forum: church and 2 guests


You cannot post new topics in this forum
You cannot reply to topics in this forum
You cannot edit your posts in this forum
You cannot delete your posts in this forum
You cannot post attachments in this forum

Search for:
Яндекс.Метрика
Powered by phpBB © 2000, 2002, 2005, 2007 phpBB Group