\m/ 80's metal \m/

Информационно-аналитический форум "80 см пыли" (In Search We Trust) "У нас никто никуда не спешит"
Me For You - http://me-4u.com
It is currently 19 Jun 2019

All times are UTC + 3 hours

Spoiler
Chat - temporary registration for foreign users (please leave your application here)







Post new topic Reply to topic  [ 80 posts ]  Go to page Previous  1, 2, 3, 4
Author Message
 
PostPosted: 13 Jun 2013 
Power Metal Maniac
User avatar
Joined: 09 Aug 2008
Posts: 6749
Lоcаtion: Москва
Age: 41
Name: Егор
Cannon - Thunder and Lightning (1988)

Вроде бы это Мелодик Хэви, однако обильно сдобренное чем-то припопсованным или глэмовым. Кто-то их сравниваетс Def Leppаrd (я их не слушаю, потому ничегоне могу сказать), а я бы сравнил с творчеством Элиса Купера второй половины 80-х. Вокал, кстати, тут мне тоже сильно напоминает Элиса. И все это мне не слишком нравится. Будто бы в хорошее блюдо добавили неприятную тебе приправу, которая перебивает весь вкус. Ну есть тут 2 скоростные вещи - Fireblade и Thunder and lightning, но и они ничего особенно для меня не представляют, снова этот налет куперовщины все портит. Конечно, я немало тут и традиционно-металлических элементов слышу, риффы нередко в пристовском духе, но все смазывается вокалом и манерой исполнения композиций(( Не моё. Даже гимн во славу Метала Metal forever (M.E.T.A.L.) - не радует, ибо это скорее фолс, чем тру. 3.6/6.0 (5/10)
29.10.2008

_________________
Long Live Metal!


Top
 Profile  
 
 
PostPosted: 14 Jun 2013 
Хиппей (support team)
User avatar
Joined: 30 Jul 2007
Posts: 113091
Lоcаtion: Киев (Kyiv, UA)
Age: 46
Name: Andrey
Dare-Devilina wrote:
Cannon Plays AC/DC

Неожиданно оказалось, что на данном альбоме все три трэка намного лучше звучат, нежели в исполнении оригинальной группы =) :true:

_________________


Top
 Profile E-mail  
 
 
PostPosted: 16 Dec 2017 
Работнечег
User avatar
Joined: 28 Aug 2007
Posts: 5846
Lоcаtion: г. Москва
Age: 30
Name: Дима
Ребят, а альбома Next Level (2016) ни у кого нет?


Top
 Profile E-mail  
 
 
PostPosted: 17 Dec 2017 
Хиппей (support team)
User avatar
Joined: 30 Jul 2007
Posts: 113091
Lоcаtion: Киев (Kyiv, UA)
Age: 46
Name: Andrey
Не видать пока на нормальных сайтах. Да и врял ли кто за альбомами той группы сейчас следит :pardon:

_________________


Top
 Profile E-mail  
 
 
PostPosted: 17 Dec 2017 
Я набрал 1000 сообщений!
Joined: 12 Dec 2008
Posts: 1064
Lоcаtion: BULGARIA
Age: 40
Name: DIMITЪR


Top
 Profile  
 
 
PostPosted: 30 Dec 2017 
Работнечег
User avatar
Joined: 28 Aug 2007
Posts: 5846
Lоcаtion: г. Москва
Age: 30
Name: Дима
Спасибо! Впринципе неплохо, попробую купить вслепую :oops:


Top
 Profile E-mail  
 
 
PostPosted: 31 Dec 2017 
Хиппей (support team)
User avatar
Joined: 30 Jul 2007
Posts: 113091
Lоcаtion: Киев (Kyiv, UA)
Age: 46
Name: Andrey
Епишно :meloman:

_________________


Top
 Profile E-mail  
 
 
PostPosted: 31 Dec 2017 
Я набрал 1000 сообщений!
Joined: 12 Dec 2008
Posts: 1064
Lоcаtion: BULGARIA
Age: 40
Name: DIMITЪR
По моему слабовото :vic:


Top
 Profile  
 
 
PostPosted: 06 Jan 2018 
Работнечег
User avatar
Joined: 28 Aug 2007
Posts: 5846
Lоcаtion: г. Москва
Age: 30
Name: Дима
:paid:


Top
 Profile E-mail  
 
 
PostPosted: 23 Jan 2018 
Хиппей (support team)
User avatar
Joined: 30 Jul 2007
Posts: 113091
Lоcаtion: Киев (Kyiv, UA)
Age: 46
Name: Andrey
Купил, Дим? :kro:

_________________


Top
 Profile E-mail  
 
 
PostPosted: 26 Jan 2018 
Работнечег
User avatar
Joined: 28 Aug 2007
Posts: 5846
Lоcаtion: г. Москва
Age: 30
Name: Дима
Купил, Дим? :kro:

Сегодня вот получил диск с почты :true:


Top
 Profile E-mail  
 
 
PostPosted: 26 Jan 2018 
Хиппей (support team)
User avatar
Joined: 30 Jul 2007
Posts: 113091
Lоcаtion: Киев (Kyiv, UA)
Age: 46
Name: Andrey
Уррря :kro: :kro: :kro:

_________________


Top
 Profile E-mail  
 
 
PostPosted: 10 Jun 2018 
Я набрал 1000 сообщений!
Joined: 12 Dec 2008
Posts: 1064
Lоcаtion: BULGARIA
Age: 40
Name: DIMITЪR
Cannon - Next Level - 2016
https://rutracker.org/forum/viewtopic.php?t=5571018


Top
 Profile  
 
 
PostPosted: 11 Jun 2018 
Хиппей (support team)
User avatar
Joined: 30 Jul 2007
Posts: 113091
Lоcаtion: Киев (Kyiv, UA)
Age: 46
Name: Andrey
cryptors wrote:
Cannon - Next Level - 2016

:thanx:

Image Image

mirror: Ur-Files l Telega l Uloz l Narod l M-Cloud

Image Image

log
Exact Audio Copy V1.3 from 2. September 2016

Отчёт EAC об извлечении, выполненном 8. мая 2018, 20:56

Cannon / Next Level

Дисковод: HL-DT-STDVDRAM GU40N Adapter: 1 ID: 0

Режим чтения : Достоверность
Использование точного потока : Да
Отключение кэша аудио : Да
Использование указателей C2 : Нет

Коррекция смещения при чтении : 103
Способность читать области Lead-in и Lead-out : Нет
Заполнение пропущенных сэмплов тишиной : Да
Удаление блоков с тишиной в начале и конце : Нет
При вычислениях CRC использовались нулевые сэмплы : Да
Интерфейс : Встроенный Win32-интерфейс для Win NT/2000

Выходной формат : Пользовательский кодировщик
Выбранный битрейт : 1024 kBit/s
Качество : Высокий
Добавление ID3-тега : Нет
Утилита сжатия : C:\Program Files (x86)\Exact Audio Copy\Flac\flac.exe
Дополнительные параметры : -V -8 -T "Date=%year%" -T "Genre=%genre%" %source%


TOC извлечённого CD

Трек | Старт | Длительность | Начальный сектор | Конечный сектор
---------------------------------------------------------------------
1 | 0:00.00 | 4:14.70 | 0 | 19119
2 | 4:14.70 | 4:25.52 | 19120 | 39046
3 | 8:40.47 | 4:19.71 | 39047 | 58542
4 | 13:00.43 | 4:06.44 | 58543 | 77036
5 | 17:07.12 | 3:14.43 | 77037 | 91629
6 | 20:21.55 | 3:42.46 | 91630 | 108325
7 | 24:04.26 | 3:42.58 | 108326 | 125033
8 | 27:47.09 | 3:31.36 | 125034 | 140894
9 | 31:18.45 | 3:58.50 | 140895 | 158794
10 | 35:17.20 | 2:53.06 | 158795 | 171775
11 | 38:10.26 | 4:44.31 | 171776 | 193106
12 | 42:54.57 | 3:28.63 | 193107 | 208769
13 | 46:23.45 | 3:18.13 | 208770 | 223632
14 | 49:41.58 | 3:37.06 | 223633 | 239913


Характеристики диапазона извлечения и сообщения об ошибках

Выбранный диапазон

Имя файла C:\Users\workutagin\Desktop\CANNON - NEXT LEVEL 2016\Cannon - Next Level.wav

Пиковый уровень 100.0 %
Скорость извлечения 2.0 X
Качество диапазона 99.9 %
CRC теста 9095B38E
CRC копии 9095B38E
Копирование... OK

Ошибок не произошло


AccurateRip: сводка

Трек 1 отсутствует в базе данных
Трек 2 отсутствует в базе данных
Трек 3 отсутствует в базе данных
Трек 4 отсутствует в базе данных
Трек 5 отсутствует в базе данных
Трек 6 отсутствует в базе данных
Трек 7 отсутствует в базе данных
Трек 8 отсутствует в базе данных
Трек 9 отсутствует в базе данных
Трек 10 отсутствует в базе данных
Трек 11 отсутствует в базе данных
Трек 12 отсутствует в базе данных
Трек 13 отсутствует в базе данных
Трек 14 отсутствует в базе данных

Ни одного трека нет в базе AccurateRip

Конец отчёта

---- CUETools DB Plugin V2.1.6

[CTDB TOCID: eqvXi3AifPaDw_OpACaZGS8a2Ms-] found
Submit result: eqvXi3AifPaDw_OpACaZGS8a2Ms- has been confirmed
Track | CTDB Status
1 | (1/1) Accurately ripped
2 | (1/1) Accurately ripped
3 | (1/1) Accurately ripped
4 | (1/1) Accurately ripped
5 | (1/1) Accurately ripped
6 | (1/1) Accurately ripped
7 | (1/1) Accurately ripped
8 | (1/1) Accurately ripped
9 | (1/1) Accurately ripped
10 | (1/1) Accurately ripped
11 | (1/1) Accurately ripped
12 | (1/1) Accurately ripped
13 | (1/1) Accurately ripped
14 | (1/1) Accurately ripped


==== Контрольная сумма отчёта B115AE6C7DD4DC7306EF181CF646642231DF621F08781108D1C74220A9DD5938 ====

cue
REM GENRE "Heavy Metal"
REM DATE 2016
REM DISCID CF0C7E0E
REM COMMENT "ExactAudioCopy v1.3"
PERFORMER "Cannon"
TITLE "Next Level"
REM COMPOSER ""
FILE "Cannon - Next Level.flac" WAVE
TRACK 01 AUDIO
TITLE "The Fortress"
PERFORMER "Cannon"
REM COMPOSER "Cannon"
FLAGS DCP
INDEX 01 00:00:00
TRACK 02 AUDIO
TITLE "Welcome To My Nightmare"
PERFORMER "Cannon"
REM COMPOSER "Cannon"
FLAGS DCP
INDEX 00 04:12:70
INDEX 01 04:14:70
TRACK 03 AUDIO
TITLE "This Is My Life"
PERFORMER "Canoon"
REM COMPOSER "Cannon"
FLAGS DCP
INDEX 00 08:38:47
INDEX 01 08:40:47
TRACK 04 AUDIO
TITLE "1984"
PERFORMER "Cannon"
REM COMPOSER "Cannon"
FLAGS DCP
INDEX 00 12:58:43
INDEX 01 13:00:43
TRACK 05 AUDIO
TITLE "Protectors Of The Light"
PERFORMER "Cannon"
REM COMPOSER "Cannon"
FLAGS DCP
INDEX 00 17:05:12
INDEX 01 17:07:12
TRACK 06 AUDIO
TITLE "The King Will Come"
PERFORMER "Cannon"
REM COMPOSER "Cannon"
FLAGS DCP
INDEX 00 20:19:55
INDEX 01 20:21:55
TRACK 07 AUDIO
TITLE "Hope Is Our Shield"
PERFORMER "Cannon"
REM COMPOSER "Cannon"
FLAGS DCP
INDEX 00 24:02:26
INDEX 01 24:04:26
TRACK 08 AUDIO
TITLE "Dead Or Alive"
PERFORMER "Cannon"
REM COMPOSER "Cannon"
FLAGS DCP
INDEX 00 27:45:09
INDEX 01 27:47:09
TRACK 09 AUDIO
TITLE "Highway"
PERFORMER "Cannon"
REM COMPOSER "Cannon"
FLAGS DCP
INDEX 00 31:16:45
INDEX 01 31:18:45
TRACK 10 AUDIO
TITLE "Never Surrender"
PERFORMER "Cannon"
REM COMPOSER "Cannon"
FLAGS DCP
INDEX 00 35:15:20
INDEX 01 35:17:20
TRACK 11 AUDIO
TITLE "Fallen Angel"
PERFORMER "Cannon"
REM COMPOSER "Cannon"
FLAGS DCP
INDEX 00 38:08:26
INDEX 01 38:10:26
TRACK 12 AUDIO
TITLE "Winter"
PERFORMER "Cannon"
REM COMPOSER "Cannon"
FLAGS DCP
INDEX 00 42:52:57
INDEX 01 42:54:57
TRACK 13 AUDIO
TITLE "Men In Black"
PERFORMER "Cannon"
REM COMPOSER "Cannon"
FLAGS DCP
INDEX 00 46:21:45
INDEX 01 46:23:45
TRACK 14 AUDIO
TITLE "Children Of The Night"
PERFORMER "Cannon"
REM COMPOSER "Cannon"
FLAGS DCP
INDEX 00 49:39:58
INDEX 01 49:41:58

_________________


Top
 Profile E-mail  
 
 
PostPosted: 11 Jun 2018 
Я набрал 1000 сообщений!
Joined: 24 Oct 2009
Posts: 2226
Lоcаtion: Оренбург
Age: 55
Name: Юра
:thanx:

_________________
:dash: I am happy!


Top
 Profile E-mail  
 
 
PostPosted: 11 Jun 2018 
Хиппей (support team)
User avatar
Joined: 30 Jul 2007
Posts: 113091
Lоcаtion: Киев (Kyiv, UA)
Age: 46
Name: Andrey
cryptors wrote:
Cannon - Next Level - 2016

Местами типа приятный и весьма хитовый и попсовый страпёрский хэви-мэтал, лишённый вообще скоростных вещей :(
И вокалист еле шевелит нотами :cry:

6-/10

_________________


Top
 Profile E-mail  
 
 
PostPosted: 31 Oct 2018 
Работнечег
User avatar
Joined: 28 Aug 2007
Posts: 5846
Lоcаtion: г. Москва
Age: 30
Name: Дима
А мне понравилось, хотя пару песен я бы выкинул. Поставил бы 7 из 10.


Top
 Profile E-mail  
 
 
PostPosted: 04 May 2019 
Хиппей (support team)
User avatar
Joined: 30 Jul 2007
Posts: 113091
Lоcаtion: Киев (Kyiv, UA)
Age: 46
Name: Andrey
А мне понравилось, хотя пару песен я бы выкинул. Поставил бы 7 из 10.

Да, тоже спустя полгода понравился альбом =)) Но не так чтобы очень. 3-5 песен вполне годные, хитовые. но жаль, что почти нет скоротсных и мощных, как ранее.

6+/10

_________________


Top
 Profile E-mail  
 
 
PostPosted: 04 May 2019 
Alive Again
User avatar
Joined: 23 Jul 2008
Posts: 3181
Age: 48
Name: Кирилл
Альбом неплох, но мне кажется, что явно слабее Burning Love

_________________
COS I WAS BORN TO ROCK
AND I'LL NEVER EVER STOP


Top
 Profile  
 
 
PostPosted: 05 May 2019 
Хиппей (support team)
User avatar
Joined: 30 Jul 2007
Posts: 113091
Lоcаtion: Киев (Kyiv, UA)
Age: 46
Name: Andrey
Да, нет той целостности и мощи уже :(

_________________


Top
 Profile E-mail  
 
Display posts from previous:  Sort by  
Post new topic Reply to topic  [ 80 posts ]  Go to page Previous  1, 2, 3, 4

All times are UTC + 3 hours


Who is online

Users browsing this forum: No registered users and 1 guest


You cannot post new topics in this forum
You cannot reply to topics in this forum
You cannot edit your posts in this forum
You cannot delete your posts in this forum
You cannot post attachments in this forum

Search for:
Яндекс.Метрика
Powered by phpBB © 2000, 2002, 2005, 2007 phpBB Group