\m/ 80's metal \m/

Информационно-аналитический форум "80 см пыли" (In Search We Trust) "У нас никто никуда не спешит"
Me For You - http://me-4u.com
It is currently 16 Oct 2021

All times are UTC + 3 hours

Spoiler
Chat - temporary registration for foreign users (please leave your application here)







Post new topic Reply to topic  [ 197 posts ]  Go to page Previous  1 ... 6, 7, 8, 9, 10
Author Message
 
PostPosted: 26 Oct 2009 
А может смените мне статус?..
User avatar
Joined: 30 Aug 2009
Posts: 824
Lоcаtion: Ачинск, Красноярский край
Age: 35
Name: Стас
> Осталось найти: | Still looking:
Bernie Torme - Live (1983)(Reissued In 2000) +3 bonus
A's and B's 1977 - 81 (2018)


Ищу дскографию этого исплнителя :umnik:
Подробная информация здесь: http://www.bernietorme.com/
http://en.wikipedia.org/wiki/Bernie_Torme
http://nwobhm.info/nwobhm/index.php?opt ... &Itemid=42
http://www.nestor.minsk.by/mg/2000/31/mg03110.html

Кое-что перезалил, надеюсь удастся оживить и собрать в кучу все ссылки с этого топика, а то небольшой бардак уже есть. Здесь то, что удалось скачать. Если у кого-то есть релизы на которые нет ссылок, просьба выложить :thanx:

Bernie Tormé

1980 - The Beat [EP] - 320
Yadi
1981 - Turn Out The Lights (Vinyl Version) - 320
Yadi
1981 - Turn Out The Lights (CD Version + Bonus) - FLAC
Yadi
1983 - Live In Sheffield - 320
Yadi
1984 - My Baby Loves A Vampire [EP] - VBR
Yadi
1985 - Live at Marquee Club (14-01-1985) -128
Yadi
1985 - Live at Marquee Club, London (16-03-1985) - 320
Yadi
1991 - Are We There Yet (Compilation) - FLAC
Yadi
1993 - Demolition Ball (14 tracks version, 1994) - 320
Yadi спасибо Роману 8848
1993 - Demolition Ball (Reissued In 2003) + 2 bonus FLAC
Yadi
1996 - Turn Out The Lights (CD Version Remastered + 3 Bonus Tracks) - 128
Yadi
1997 - Wild Irish - FLAC
Yadi
1999 - White Trash Guitar - FLAC
Yadi
2001 - Scorched Earth Live FLAC
Yadi
2014 - Flowers And Dirt 2CD - FLAC
Yadi
2015 - Blacheart - FLAC
Yadi
2017 - Dublin Cowboy 3CD - FLAC
CD1
CD2
CD3


Bernie Tormé Band

1978 - I'm Not Ready 7'' - 192
Yadi
1979 - Weekend 7'' = 4 track EP with Phil Spalding + Mark Harrison - WAV
Yadi
1998 - Punk Or What (Unreleased 1977-79) - FLAC
Yadi

The Electric Gypsies

1982 - Live, Reading Festival, 28-August-1982 (Bootleg)
Mediafire
1982 - Shoorah Shoorah 7'' - 160
Yadi
1982 - Shoorah Shoorah 7'' + I Can't Control Myself 7''
Yadi Thanks Vitaly65
1983 - Electric Gypsies (Vinyl Version) - 320
Yadi
1996 - Electric Gypsies (CD version) (5 Bonus) - FLAC
Yadi

Tormé

1985 - All Around The World 7" - 160
Yadi
1986 - Back to Babylon (CD version, 11 tracks) - 192
Yadi
1986 - Back To Babylon (Reissued In 2004) FLAC
Yadi
1987 - Die Pretty Die Young - 192
Yadi
1987 - Die Pretty Die Young (Reissued In 2002) - FLAC
Yadi
1987 - Official Bootleg (Reissued in 1997 on CD + 3 bonus tracks) - 192
Yadi

GMT
2006 - Cannonball EP - mp3
Yadi
M-Cloud
2006 - Bitter & Twisted - APE
Yadi


Top
 Profile E-mail  
 
 
PostPosted: 17 Nov 2019 
Пионэръ
Joined: 29 Nov 2009
Posts: 17
Lоcаtion: Москва
Name: Александр
Кто-нибудь может взять последний альбом Bernie Torme - Shadowland в lossless отсюда (на сайте доступен внутренний поиск, много других раритетов в lossless)?

https://musicqbox.com/music/1441184729/ ... rnie-torme


Top
 Profile E-mail  
 
 
PostPosted: 17 Nov 2019 
Хиппей (support team)
User avatar
Joined: 30 Jul 2007
Posts: 122866
Lоcаtion: Киев (Kyiv, UA)
Age: 48
Name: Andrey
Скорее всего это сайт-обманка :lloo:

Вот, к примеру, куда ведёт путь к файлам :arrow: https://audio-ssl.itunes.apple.com/itun ... .aac.p.m4a

_________________


Top
 Profile E-mail  
 
 
PostPosted: 17 Nov 2019 
Хиппей (support team)
User avatar
Joined: 30 Jul 2007
Posts: 122866
Lоcаtion: Киев (Kyiv, UA)
Age: 48
Name: Andrey
Полный альбом пока можно послушать здесь :arrow: https://bernietorme.bandcamp.com/album/shadowland

А в 20-м году явно и качнуть на каждом углу бесплатно.

Надеюсь, скоро появится на Дизере.

_________________


Top
 Profile E-mail  
 
 
PostPosted: 17 Nov 2019 
Хиппей (support team)
User avatar
Joined: 30 Jul 2007
Posts: 122866
Lоcаtion: Киев (Kyiv, UA)
Age: 48
Name: Andrey
Во, ещё один сайт, который качает сэмплы с тунца http://downloadbandcamp.com/bernietorme ... shadowland :pardon:

_________________


Top
 Profile E-mail  
 
 
PostPosted: 17 Nov 2019 
Хиппей (support team)
User avatar
Joined: 30 Jul 2007
Posts: 122866
Lоcаtion: Киев (Kyiv, UA)
Age: 48
Name: Andrey
Ааа, етить, только заметил, что альбом вышел ровно год назад :scratch:

_________________


Top
 Profile E-mail  
 
 
PostPosted: 17 Nov 2019 
Хиппей (support team)
User avatar
Joined: 30 Jul 2007
Posts: 122866
Lоcаtion: Киев (Kyiv, UA)
Age: 48
Name: Andrey
100998 wrote:
Bernie Torme - Live (1983)(Reissued In 2000) +3 bonus

В ослике торчит этот альбом. В мп3 и.. явно без бонусов. Попробую качнуть.

_________________


Top
 Profile E-mail  
 
 
PostPosted: 20 Nov 2019 
Работнечег
User avatar
Joined: 28 Aug 2007
Posts: 6364
Lоcаtion: г. Москва
Age: 32
Name: Дима
Bernie Torme – Die Pretty, Die Young (1987)(Reissued In 2002)

Image

Label: Retrowrek Records
Format: FLAC (потрековый) + Front Cover
Size: 378 Mb

Tracklist:
1. Let It Rock 3:19
2. The Real Thing 3:44
3. Ready 3:48
4. Sex Action 4:11
5. The Ways Of The East 2:55
6. Killer 3:19
7. Memphis 2:06
8. Louise 3:38
9. Crimes Of Passion 3:13
10. Ghost Train 4:10
11. All Around The World (Bonus)
12. Chain Gang (Bonus)
13. Mistery Train (Bonus)
14. Let It Rock (Alternate Take)(Bonus)

Yadi
С Bandcamp


Top
 Profile E-mail  
 
 
PostPosted: 20 Nov 2019 
Partisanen - nicht kapitulieren!!
User avatar
Joined: 25 Dec 2011
Posts: 7756
Lоcаtion: партизанские леса
Age: 49
Name: Владимир
church wrote:
Format: FLAC + Log + Cue + Covers

church wrote:
Bandcamp rip.

это как? :shok:

_________________
One more beer and Heavy Metal and I'm just fine!
старовер, куле... слово "блин" - до сих пор через Ъ говорю


Top
 Profile E-mail  
 
 
PostPosted: 20 Nov 2019 
Работнечег
User avatar
Joined: 28 Aug 2007
Posts: 6364
Lоcаtion: г. Москва
Age: 32
Name: Дима
Ай-ай, поправил, спасибо, что обратил внимание :oops:
P.S. Актуализировал список релизов в первом сообщении.


Top
 Profile E-mail  
 
 
PostPosted: 20 Nov 2019 
Хиппей (support team)
User avatar
Joined: 30 Jul 2007
Posts: 122866
Lоcаtion: Киев (Kyiv, UA)
Age: 48
Name: Andrey
church wrote:
Bernie Torme – Die Pretty, Die Young (1987)(Reissued In 2002)

:thanx:

miror: Ur-Files l Uloz l Telega l Narod

_________________


Top
 Profile E-mail  
 
 
PostPosted: 20 Nov 2019 
Хиппей (support team)
User avatar
Joined: 30 Jul 2007
Posts: 122866
Lоcаtion: Киев (Kyiv, UA)
Age: 48
Name: Andrey
Ааа, Димка, а у тебя есть возможность первое сообщение в теме прикреплять?

Image

_________________


Top
 Profile E-mail  
 
 
PostPosted: 25 Nov 2019 
Работнечег
User avatar
Joined: 28 Aug 2007
Posts: 6364
Lоcаtion: г. Москва
Age: 32
Name: Дима
Да, есть, пользовался уже пару раз


Top
 Profile E-mail  
 
 
PostPosted: 25 Nov 2019 
Хиппей (support team)
User avatar
Joined: 30 Jul 2007
Posts: 122866
Lоcаtion: Киев (Kyiv, UA)
Age: 48
Name: Andrey
О, фуф. Тогда уряяя :kro: :kro: :kro:

_________________


Top
 Profile E-mail  
 
 
PostPosted: 27 Nov 2019 
Хиппей (support team)
User avatar
Joined: 30 Jul 2007
Posts: 122866
Lоcаtion: Киев (Kyiv, UA)
Age: 48
Name: Andrey
church wrote:
Bernie Torme – Die Pretty, Die Young (1987)(Reissued In 2002)

Какие приятные хардынроллы тут на альбом, вах прям :meloman: :true: :lob:

7/10

_________________


Top
 Profile E-mail  
 
 
PostPosted: 29 Nov 2019 
спирт 100%
User avatar
Joined: 22 Sep 2008
Posts: 4633
Age: 50
Name: Саня
:thanx:


Top
 Profile  
 
 
PostPosted: 16 May 2021 
Rara avis
User avatar
Joined: 27 Jan 2009
Posts: 5892
Name: .
Есть такой альбом:
Bernie Torme - 1983 - Live Sheffield (CD 2002, 13 tracks )
https://www.mediafire.com/file/qlxsxxog ... 3+(CD+2002).rar/file


Top
 Profile E-mail  
 
 
PostPosted: 10 Jul 2021 
Пионэръ
Joined: 29 Nov 2009
Posts: 17
Lоcаtion: Москва
Name: Александр
Bernie Torme – Shadowland (2CD) (2018)


Image

Label: Retro Wrek Records
Format: FLAC + Log + Cue + Covers
Size: 608 Mb

Tracklist:
CD1
01.One To Blame
02.Water Into Wine
03.Come The Revolution
04.Forever
05.Getaway
06.Motor Daddy
07.Here Come The Rain
08.Prodigal Son
09.Honey To The Bee
CD2
01.6 Foot
02.Livin' The Dream
03.Rock 'n' Roll Gypsy
04.Sun In Splendour
05.Innovative Jam / Chaos Theory
06.A Farewell To Arms - Slan Leis An Cogaidh
LOG CD1
Exact Audio Copy V1.3 from 2. September 2016

EAC extraction logfile from 27. June 2021, 2:05

Bernie Torme / Shadowland (CD1)

Used drive : SlimtypeeSAU108 4 Adapter: 1 ID: 1

Read mode : Secure
Utilize accurate stream : Yes
Defeat audio cache : Yes
Make use of C2 pointers : No

Read offset correction : 6
Overread into Lead-In and Lead-Out : No
Fill up missing offset samples with silence : Yes
Delete leading and trailing silent blocks : No
Null samples used in CRC calculations : Yes
Used interface : Native Win32 interface for Win NT & 2000

Used output format : User Defined Encoder
Selected bitrate : 896 kBit/s
Quality : High
Add ID3 tag : No
Command line compressor : C:\Program Files\Exact Audio Copy\Flac\flac.exe
Additional command line options : -V -8 %source%


TOC of the extracted CD

Track | Start | Length | Start sector | End sector
---------------------------------------------------------
1 | 0:00.00 | 3:53.71 | 0 | 17545
2 | 3:53.71 | 3:26.54 | 17546 | 33049
3 | 7:20.50 | 3:52.34 | 33050 | 50483
4 | 11:13.09 | 8:16.55 | 50484 | 87738
5 | 19:29.64 | 2:40.48 | 87739 | 99786
6 | 22:10.37 | 4:46.43 | 99787 | 121279
7 | 26:57.05 | 5:32.27 | 121280 | 146206
8 | 32:29.32 | 4:18.58 | 146207 | 165614
9 | 36:48.15 | 2:43.00 | 165615 | 177839


Range status and errors

Selected range

Filename C:\Bernie Torme - Shadowland\CD1\Bernie Torme - Shadowland (CD1).wav

Peak level 100.0 %
Extraction speed 4.0 X
Range quality 100.0 %
Copy CRC 8407D5DB
Copy OK

No errors occurred


AccurateRip summary

Track 1 accurately ripped (confidence 1) [71FFBE6D] (AR v2)
Track 2 accurately ripped (confidence 1) [558C426F] (AR v2)
Track 3 accurately ripped (confidence 1) [39B976EC] (AR v2)
Track 4 accurately ripped (confidence 1) [245DA0EB] (AR v2)
Track 5 accurately ripped (confidence 1) [C8442308] (AR v2)
Track 6 accurately ripped (confidence 1) [B3CC63F8] (AR v2)
Track 7 accurately ripped (confidence 1) [4FCE0C72] (AR v2)
Track 8 accurately ripped (confidence 1) [45D0F853] (AR v2)
Track 9 accurately ripped (confidence 1) [DBBA8FB7] (AR v2)

All tracks accurately ripped

End of status report

---- CUETools DB Plugin V2.1.6

[CTDB TOCID: 9S7r8mcguSZwyWNwLJFjDvoRGuE-] found
Submit result: 9S7r8mcguSZwyWNwLJFjDvoRGuE- has been confirmed
Track | CTDB Status
1 | (1/1) Accurately ripped
2 | (1/1) Accurately ripped
3 | (1/1) Accurately ripped
4 | (1/1) Accurately ripped
5 | (1/1) Accurately ripped
6 | (1/1) Accurately ripped
7 | (1/1) Accurately ripped
8 | (1/1) Accurately ripped
9 | (1/1) Accurately ripped


==== Log checksum 9169B647477454F5ED10AFF9341A7AB577F8592A6877CC2564B3A9DC8637947E ====

LOG CD2
Exact Audio Copy V1.3 from 2. September 2016

EAC extraction logfile from 27. June 2021, 9:51

Bernie Torme / Shadowland (CD2)

Used drive : SlimtypeeSAU108 4 Adapter: 1 ID: 1

Read mode : Secure
Utilize accurate stream : Yes
Defeat audio cache : Yes
Make use of C2 pointers : No

Read offset correction : 6
Overread into Lead-In and Lead-Out : No
Fill up missing offset samples with silence : Yes
Delete leading and trailing silent blocks : No
Null samples used in CRC calculations : Yes
Used interface : Native Win32 interface for Win NT & 2000

Used output format : User Defined Encoder
Selected bitrate : 896 kBit/s
Quality : High
Add ID3 tag : No
Command line compressor : C:\Program Files\Exact Audio Copy\Flac\flac.exe
Additional command line options : -V -8 %source%


TOC of the extracted CD

Track | Start | Length | Start sector | End sector
---------------------------------------------------------
1 | 0:00.00 | 3:23.72 | 0 | 15296
2 | 3:23.72 | 5:07.11 | 15297 | 38332
3 | 8:31.08 | 4:01.64 | 38333 | 56471
4 | 12:32.72 | 7:56.00 | 56472 | 92171
5 | 20:28.72 | 14:26.25 | 92172 | 157146
6 | 34:55.22 | 4:24.25 | 157147 | 176971


Range status and errors

Selected range

Filename C:\Bernie Torme - Shadowland\CD2\Bernie Torme - Shadowland (CD2).wav

Peak level 100.0 %
Extraction speed 3.9 X
Range quality 100.0 %
Copy CRC 48587B2F
Copy OK

No errors occurred


AccurateRip summary

Track 1 accurately ripped (confidence 1) [13728FCA] (AR v2)
Track 2 accurately ripped (confidence 1) [457BD7E2] (AR v2)
Track 3 accurately ripped (confidence 1) [5DB05AC4] (AR v2)
Track 4 accurately ripped (confidence 1) [B5D6A2F8] (AR v2)
Track 5 accurately ripped (confidence 1) [5365FC68] (AR v2)
Track 6 accurately ripped (confidence 1) [0C54FCD4] (AR v2)

All tracks accurately ripped

End of status report

---- CUETools DB Plugin V2.1.6

[CTDB TOCID: O1dt77ftPKMsScAEKxk3iGw4DBU-] disk not present in database
Submit result: O1dt77ftPKMsScAEKxk3iGw4DBU- has been uploaded


==== Log checksum 6181747F3A4081E52F96FEB29BB6F6E5A96BD6A4885CC9CEE87EFA63B98E4DE9 ====

CUE CD1
REM GENRE "Hard Rock"
REM DATE 2018
REM DISCID 61094309
REM COMMENT "ExactAudioCopy v1.3"
PERFORMER "Bernie Torme"
TITLE "Shadowland (CD1)"
REM COMPOSER ""
FILE "Bernie Torme - Shadowland (CD1).flac" WAVE
TRACK 01 AUDIO
TITLE "One To Blame"
PERFORMER "Bernie Torme"
REM COMPOSER ""
INDEX 01 00:00:00
TRACK 02 AUDIO
TITLE "Water Into Wine"
PERFORMER "Bernie Torme"
REM COMPOSER ""
INDEX 01 03:53:71
TRACK 03 AUDIO
TITLE "Come The Revolution"
PERFORMER "Bernie Torme"
REM COMPOSER ""
INDEX 01 07:20:50
TRACK 04 AUDIO
TITLE "Forever"
PERFORMER "Bernie Torme"
REM COMPOSER ""
INDEX 01 11:13:09
TRACK 05 AUDIO
TITLE "Getaway"
PERFORMER "Bernie Torme"
REM COMPOSER ""
INDEX 01 19:29:64
TRACK 06 AUDIO
TITLE "Motor Daddy"
PERFORMER "Bernie Torme"
REM COMPOSER ""
INDEX 01 22:10:37
TRACK 07 AUDIO
TITLE "Here Come The Rain"
PERFORMER "Bernie Torme"
REM COMPOSER ""
INDEX 01 26:57:05
TRACK 08 AUDIO
TITLE "Prodigal Son"
PERFORMER "Bernie Torme"
REM COMPOSER ""
INDEX 01 32:29:32
TRACK 09 AUDIO
TITLE "Honey To The Bee"
PERFORMER "Bernie Torme"
REM COMPOSER ""
INDEX 01 36:48:15

CUE CD2
REM GENRE "Hard Rock"
REM GENRE "Hard Rock"
REM DATE 2018
REM DISCID 3A093706
REM COMMENT "ExactAudioCopy v1.3"
PERFORMER "Bernie Torme"
TITLE "Shadowland (CD2)"
REM COMPOSER ""
FILE "Bernie Torme - Shadowland (CD2).flac" WAVE
TRACK 01 AUDIO
TITLE "6 Foot"
PERFORMER "Bernie Torme"
REM COMPOSER ""
INDEX 01 00:00:00
TRACK 02 AUDIO
TITLE "Livin' The Dream"
PERFORMER "Bernie Torme"
REM COMPOSER ""
INDEX 01 03:23:72
TRACK 03 AUDIO
TITLE "Rock 'n' Roll Gypsy"
PERFORMER "Bernie Torme"
REM COMPOSER ""
INDEX 01 08:31:08
TRACK 04 AUDIO
TITLE "Sun In Splendour"
PERFORMER "Bernie Torme"
REM COMPOSER ""
INDEX 01 12:32:72
TRACK 05 AUDIO
TITLE "Innovative Jam / Chaos Theory"
PERFORMER "Bernie Torme"
REM COMPOSER ""
INDEX 01 20:28:72
TRACK 06 AUDIO
TITLE "A Farewell To Arms - Slan Leis An Cogaidh"
PERFORMER "Bernie Torme"
REM COMPOSER ""
INDEX 01 34:55:22

Состав
Bernie Torme (Gillan, Desperado, Atomic Rooster, GMT) - Vocals, Guitar
Sy Morton - Bass, Backing Vocals
Colin Towns (Gillan, Ian Gillan Band) - Keyboards
Mik Gaffney - Drums
Jimi Tormey - Percussion
Rosa B - Strings

yadi


Top
 Profile E-mail  
 
Display posts from previous:  Sort by  
Post new topic Reply to topic  [ 197 posts ]  Go to page Previous  1 ... 6, 7, 8, 9, 10

All times are UTC + 3 hours


Who is online

Users browsing this forum: No registered users and 1 guest


You cannot post new topics in this forum
You cannot reply to topics in this forum
You cannot edit your posts in this forum
You cannot delete your posts in this forum

Search for:
Яндекс.Метрика
Powered by phpBB © 2000, 2002, 2005, 2007 phpBB Group