\m/ 80's metal \m/

Информационно-аналитический форум "80 см пыли" (In Search We Trust) "У нас никто никуда не спешит"
Me For You - http://me-4u.com
It is currently 22 Sep 2019

All times are UTC + 3 hours

Spoiler
Chat - temporary registration for foreign users (please leave your application here)







Post new topic Reply to topic  [ 25 posts ]  Go to page Previous  1, 2
Author Message
 
PostPosted: 03 Nov 2008 
Анатолий
User avatar
Joined: 18 Oct 2008
Posts: 3531
Lоcаtion: Армавир
Age: 42
Name: Анатолий
Code:
REM DATE 1988
REM DISCID 8508E70B
REM COMMENT "ExactAudioCopy v0.95b3"
PERFORMER "Dissection"
TITLE "Final Genocide"
FILE "Dissection-1988-Final_Genocide.wav" WAVE
  TRACK 01 AUDIO
    TITLE "Intro"
    PERFORMER "Dissection"
    INDEX 01 00:00:00
  TRACK 02 AUDIO
    TITLE "Final Genocide"
    PERFORMER "Dissection"
    INDEX 01 01:19:15
  TRACK 03 AUDIO
    TITLE "Minotaur The Emperor"
    PERFORMER "Dissection"
    INDEX 00 08:22:58
    INDEX 01 08:22:63
  TRACK 04 AUDIO
    TITLE "Graveyard Beyond"
    PERFORMER "Dissection"
    INDEX 01 12:52:44
  TRACK 05 AUDIO
    TITLE "Eat Shit Get Away"
    PERFORMER "Dissection"
    INDEX 00 16:39:19
    INDEX 01 16:39:22
  TRACK 06 AUDIO
    TITLE "Escape Of The Apocalypse"
    PERFORMER "Dissection"
    INDEX 01 19:46:41
  TRACK 07 AUDIO
    TITLE "Viking Sword"
    PERFORMER "Dissection"
    INDEX 01 24:15:73
  TRACK 08 AUDIO
    TITLE "Nails On Leather"
    PERFORMER "Dissection"
    INDEX 01 26:49:08
  TRACK 09 AUDIO
    TITLE "Chainsaw Slaughter"
    PERFORMER "Dissection"
    INDEX 00 30:36:52
    INDEX 01 30:36:53
  TRACK 10 AUDIO
    TITLE "Black List"
    PERFORMER "Dissection"
    INDEX 01 34:13:44
  TRACK 11 AUDIO
    TITLE "Fuck Off"
    PERFORMER "Dissection"
    INDEX 01 37:45:12


Вот собственно куй...


Top
 Profile E-mail  
 
 
PostPosted: 04 Nov 2008 
Анатолий
User avatar
Joined: 18 Oct 2008
Posts: 3531
Lоcаtion: Армавир
Age: 42
Name: Анатолий
Ну вроде разобрались общими усилиями. :smile:

На архивах не верный хронометраж указан...

Всем огромное, человеческое спасибо!

Отдельное спасибо Андрею ( Scatterbrain ) и Роману ( Metal Militia ). :thanx:


Top
 Profile E-mail  
 
 
PostPosted: 04 Nov 2008 
Хиппей (support team)
User avatar
Joined: 30 Jul 2007
Posts: 114418
Lоcаtion: Киев (Kyiv, UA)
Age: 46
Name: Andrey
Privateer wrote:
На архивах не верный хронометраж указан...

Ааа, Анатоль, так оставь нам здесь правильный куешитик :oops:


Top
 Profile E-mail  
 
 
PostPosted: 04 Nov 2008 
Анатолий
User avatar
Joined: 18 Oct 2008
Posts: 3531
Lоcаtion: Армавир
Age: 42
Name: Анатолий
Пожалуйста. :smile:

Code:
REM DATE 1988
REM DISCID 8508E70B
REM COMMENT "ExactAudioCopy v0.95b3"
PERFORMER "Dissection"
TITLE "Final Genocide"
FILE "Dissection-1988-Final_Genocide.wav" WAVE
  TRACK 01 AUDIO
    TITLE "Intro" / "Final Genocide"
    PERFORMER "Dissection"
    INDEX 00 00:00:00
    INDEX 01 00:00:15
  TRACK 02 AUDIO
    TITLE "Minotaur The Emperor"
    PERFORMER "Dissection"
    INDEX 00 08:22:58
    INDEX 01 08:22:63
  TRACK 03 AUDIO
    TITLE "Graveyard Beyond"
    PERFORMER "Dissection"
    INDEX 00 12:52:41
    INDEX 01 12:52:44
  TRACK 04 AUDIO
    TITLE "Eat Shit Get Away"
    PERFORMER "Dissection"
    INDEX 00 16:39:19
    INDEX 01 16:39:22
  TRACK 05 AUDIO
    TITLE "Escape Of The Apocalypse"
    PERFORMER "Dissection"
    INDEX 00 19:46:38
    INDEX 01 19:46:41
  TRACK 06 AUDIO
    TITLE "Viking Sword"
    PERFORMER "Dissection"
    INDEX 00 24:15:69
    INDEX 01 24:15:73
  TRACK 07 AUDIO
    TITLE "Nails On Leather"
    PERFORMER "Dissection"
    INDEX 00 26:49:04
    INDEX 01 26:49:08
  TRACK 08 AUDIO
    TITLE "Chainsaw Slaughter"
    PERFORMER "Dissection"
    INDEX 00 30:36:52
    INDEX 01 30:36:53
  TRACK 09 AUDIO
    TITLE "Black List"
    PERFORMER "Dissection"
    INDEX 00 34:13:41
    INDEX 01 34:13:44
  TRACK 10 AUDIO
    TITLE "Fuck Off"
    PERFORMER "Dissection"
    INDEX 00 37:45:09
    INDEX 01 37:45:12


Это моё произведение. Но тут как говорится: дело вкуса. Я сделал так как было на виниле. Интро не отделял в самостоятельный трек.

Роман, сделал иначе.


Top
 Profile E-mail  
 
 
PostPosted: 04 Nov 2008 
Хиппей (support team)
User avatar
Joined: 30 Jul 2007
Posts: 114418
Lоcаtion: Киев (Kyiv, UA)
Age: 46
Name: Andrey
Во, спасибо большое :thanx:


Top
 Profile E-mail  
 
Display posts from previous:  Sort by  
Post new topic Reply to topic  [ 25 posts ]  Go to page Previous  1, 2

All times are UTC + 3 hours


Who is online

Users browsing this forum: No registered users and 2 guests


You cannot post new topics in this forum
You cannot reply to topics in this forum
You cannot edit your posts in this forum
You cannot delete your posts in this forum
You cannot post attachments in this forum

Search for:
Яндекс.Метрика
Powered by phpBB © 2000, 2002, 2005, 2007 phpBB Group