\m/ 80's metal \m/

Информационно-аналитический форум "80 см пыли" (In Search We Trust) "У нас никто никуда не спешит"
Me For You - http://me-4u.com
It is currently 22 Oct 2019

All times are UTC + 3 hours

Spoiler
Chat - temporary registration for foreign users (please leave your application here)







Post new topic Reply to topic  [ 8 posts ] 
Author Message
 
PostPosted: 11 Aug 2009 
Pumpkin Priest
User avatar
Joined: 07 Nov 2008
Posts: 620
Lоcаtion: St. Petersburg, Russia
Age: 30
Name: Сергей
Image

Жанр: Heavy Metal
Год выпуска диска: 2009
Аудио кодек: APE
Тип рипа: image+.cue
Битрейт аудио: lossless
Продолжительность: 61:50

Трэклист:

01. Resurrection
02. Made In Hell
03. Locked And Loaded
04. Into The Pit
05. Nailed To The Gun
06. Stained Class
07. Jawbreaker
08. Silent Screams
09. Cyber World
10. Night Fall
11. The Hellion
12. Electric Eye
13. Metal Gods
14. Oh Yeah!
15. Breaking The Law
16. Drive (Bonus)


"EAC Log File"
Exact Audio Copy V0.99 prebeta 4 from 23. January 2008

Отчёт EAC об извлечении, выполненном 11. августа 2009, 2:39

Halford / Live At Rock In Rio III

Дисковод: Optiarc DVD RW AD-7173A Adapter: 0 ID: 0

Режим чтения : Достоверность
Использование точного потока : Да
Отключение кэша аудио : Да
Использование указателей C2 : Нет

Коррекция смещения при чтении : 48
Способность читать области Lead-in и Lead-out : Нет
Заполнение пропущенных сэмплов тишиной : Да
Удаление блоков с тишиной в начале и конце : Нет
При вычислениях CRC использовались нулевые сэмплы : Да
Интерфейс : Установленный внешний ASPI-интерфейс

Выходной формат : Внутренние WAV-операции
Формат сэмплов : 44.100 Гц; 16 бит; стерео

TOC извлечённого CD

Трек | Старт | Длительность | Начальный сектор | Конечный сектор
---------------------------------------------------------------------
1 | 0:00.00 | 4:03.34 | 0 | 18258
2 | 4:03.34 | 4:14.36 | 18259 | 37344
3 | 8:17.70 | 3:19.05 | 37345 | 52274
4 | 11:37.00 | 4:18.70 | 52275 | 71694
5 | 15:55.70 | 3:51.25 | 71695 | 89044
6 | 19:47.20 | 5:21.55 | 89045 | 113174
7 | 25:09.00 | 3:43.00 | 113175 | 129899
8 | 28:52.00 | 7:29.20 | 129900 | 163594
9 | 36:21.20 | 3:08.20 | 163595 | 177714
10 | 39:29.40 | 3:35.00 | 177715 | 193839
11 | 43:04.40 | 0:42.30 | 193840 | 197019
12 | 43:46.70 | 3:34.17 | 197020 | 213086
13 | 47:21.12 | 4:30.58 | 213087 | 233394
14 | 51:51.70 | 1:16.50 | 233395 | 239144
15 | 53:08.45 | 4:11.30 | 239145 | 257999
16 | 57:20.00 | 4:30.53 | 258000 | 278302

Характеристики диапазона извлечения и сообщения об ошибках

Выбранный диапазон

Имя файла E:\[Heavy Metal] Halford - Live At Rock In Rio III [APE+CUE+EAC LOG]\CD.wav

Пиковый уровень 100.0 %
Качество диапазона 100.0 %
CRC копии D2A56D6A
Копирование... OK

Ошибок не произошло

Конец отчёта


Скачать с торрента: http://torrents.ru/forum/viewtopic.php?t=2094465

_________________
Metal Is Forever!!!


Top
 Profile  
 
 
PostPosted: 11 Aug 2009 
Дежурный по КУПу
User avatar
Joined: 17 Aug 2007
Posts: 5871
Age: 51
Name: Ге
Серег, с чего рипал, какой источник?

запутался и не туда первый раз вопрос вставил...

_________________
http://jp-mania.ru/
http://jp-tourdates.ucoz.ru/


Top
 Profile  
 
 
PostPosted: 11 Aug 2009 
Pumpkin Priest
User avatar
Joined: 07 Nov 2008
Posts: 620
Lоcаtion: St. Petersburg, Russia
Age: 30
Name: Сергей
German

Blu-Ray :crazy:

_________________
Metal Is Forever!!!


Top
 Profile  
 
 
PostPosted: 11 Aug 2009 
Pumpkin Priest
User avatar
Joined: 07 Nov 2008
Posts: 620
Lоcаtion: St. Petersburg, Russia
Age: 30
Name: Сергей
Надеюсь на блюрейке Крусибл Ворлд Тура тож будит лосслесс дорога=))) :true:

_________________
Metal Is Forever!!!


Top
 Profile  
 
 
PostPosted: 11 Aug 2009 
Pumpkin Priest
User avatar
Joined: 07 Nov 2008
Posts: 620
Lоcаtion: St. Petersburg, Russia
Age: 30
Name: Сергей
German

В общем советую тебе скачать. Почти лив инсуррекшен по качеству=))) :true:

_________________
Metal Is Forever!!!


Top
 Profile  
 
 
PostPosted: 21 Nov 2009 
Труъ
Joined: 05 Aug 2009
Posts: 131
Lоcаtion: г. Саратов. Россия
Age: 36
Name: ОлеГ
Часов 6 назад забрал диски с почты. Расстоило в лёгкую качество плиграфии буклетов-могли и получше сделать! А то буквы на наклейке на инто Зе Пит двоятся! Расстоило что в коробке БлюРея отсутствует какой-либо буклет вообще ! У кого-нибудь были буклеты в блюРэе или ДВД вариантах рок ин Рио 3 ! А ВООБЩЕ Я В ШОКЕ В ХОРОШЕМ СМЫСЛЕ СЛОВА ОТ БЛЮРЭЯ РОК ИН РИО 3 !!! ПОНРАВИЛОСЬ ВСЁ СОДЕРЖАНИЕ ДИСКА! ОСОБЕННО ПОРАДОВАЛИ 3 ДОРОЖКИ ДЛЯ САМОГО КОНЦЕРТА- 5.1 -СТЕРЕО - STEREO ОN STAGE!!! STEREO ON STAGE СТАЛО МОЕЁ ЛЮБИМОЙ ДОРОЖКОЙ КЛАССНО СЛЫШАТЬ КОНЦЕРТ КАК ЕГО СЛЫШАТ САМИ МУЗЫКАНТЫ. КЛАССНО ЧТО РОБ ВЫВЕДЕН НА ДАННОЙ ДОРОЖКЕ В "ПЕРВЫЙ РЯД " ПОНРАВИЛИСЬ ФОТО ВО ВРЕМЯ -LIVE INSURRECTION 5.1. ТО ЛИ ТЕХНОЛОГИЯ БЛЮРЕЙ ТАКОЕ ПОЗВОЛЯЕТ, ТО ЛИ ДИСК СДЕЛАН ОТ ДУШИ ! у МЕНЯ АЖ МУРАШКИ ПО КОЖЕ И СЛЁЗЫ РАДОРСТИ И ЭЙФОРИИ ОТ КАЧЕСТВА И СОДЕРЖАНИЯ БЛЮРЕЯ. BD полюбому вытеснит ДВД! Жалко что картинку самого концерта заметно пережали! В ИНТУ ЗЕ ПИТ порадовал афтограф Роба, у меня кстати Лонг Бокс под номером 1767, а у кого какие ещё номера есть бокса Пита?


Top
 Profile E-mail  
 
 
PostPosted: 21 Nov 2009 
Дежурный по КУПу
User avatar
Joined: 17 Aug 2007
Posts: 5871
Age: 51
Name: Ге
bov1 wrote:
В ИНТУ ЗЕ ПИТ порадовал афтограф Роба, у меня кстати Лонг Бокс под номером 1767


Хм... а я вроде еще не получал такого :crazy:

_________________
http://jp-mania.ru/
http://jp-tourdates.ucoz.ru/


Top
 Profile  
 
 
PostPosted: 22 Nov 2009 
Труъ
Joined: 05 Aug 2009
Posts: 131
Lоcаtion: г. Саратов. Россия
Age: 36
Name: ОлеГ
В документальном кино о туре Ресурректион на Диске Рок ин рио 3 на 18 минуте показывают репитицию гитаристов и барабанщика так вот музыка очень сильно напоминает Deal With The Devil ! Может это роб её по большей части из соло проекта в присты 2005 года принёс ! Тем более когда начал слушать Ангела оф Ретрибюшн в марте 2005 года-то сразу обратил внимание, что песня стилистически выбивается из альбома и как-будто является частью албома Ресурректион !


Top
 Profile E-mail  
 
Display posts from previous:  Sort by  
Post new topic Reply to topic  [ 8 posts ] 

All times are UTC + 3 hours


Who is online

Users browsing this forum: No registered users and 4 guests


You cannot post new topics in this forum
You cannot reply to topics in this forum
You cannot edit your posts in this forum
You cannot delete your posts in this forum
You cannot post attachments in this forum

Search for:
Яндекс.Метрика
cron
Powered by phpBB © 2000, 2002, 2005, 2007 phpBB Group