\m/ 80's metal \m/

Информационно-аналитический форум "80 см пыли" (In Search We Trust) "У нас никто никуда не спешит"
Me For You - http://me-4u.com
It is currently 15 Oct 2019

All times are UTC + 3 hours

Spoiler
Chat - temporary registration for foreign users (please leave your application here)







Post new topic Reply to topic  [ 2 posts ] 
Author Message
 
PostPosted: 09 Oct 2013 
\m/ 80 см сала \m/
User avatar
Joined: 12 Mar 2012
Posts: 2590
Age: 26
Name: Nick
Image

01. Bullet Train (5:12)
02. Rapid Fire ('98 version) (3:57)
03. Green Manalishi ('98 version) (4:12)

log
Exact Audio Copy V1.0 beta 1 from 15. November 2010

EAC extraction logfile from 11. June 2011, 1:01

Judas Priest / Bullet Train (CD Single, Zero, XRCN-2024, Japan)

Used drive : Optiarc BD RW BD-5740H Adapter: 0 ID: 1

Read mode : Secure
Utilize accurate stream : Yes
Defeat audio cache : Yes
Make use of C2 pointers : No

Read offset correction : 48
Overread into Lead-In and Lead-Out : No
Fill up missing offset samples with silence : Yes
Delete leading and trailing silent blocks : No
Null samples used in CRC calculations : Yes
Used interface : Native Win32 interface for Win NT & 2000

Used output format : User Defined Encoder
Selected bitrate : 128 kBit/s
Quality : High
Add ID3 tag : No
Command line compressor : C:\Program Files (x86)\Exact Audio Copy\Flac\flac.exe
Additional command line options : -T "DATE=%y" -T "GENRE=%m" -8 -V %s

TOC of the extracted CD

Track | Start | Length | Start sector | End sector
---------------------------------------------------------
1 | 0:00.00 | 5:11.50 | 0 | 23374
2 | 5:11.50 | 3:57.15 | 23375 | 41164
3 | 9:08.65 | 4:11.67 | 41165 | 60056

Range status and errors

Selected range

Filename C:\Ripped By liveevil\Judas Priest - Bullet Train (CD Single, Zero, XRCN-2024, Japan).wav

Peak level 100.0 %
Extraction speed 3.7 X
Range quality 100.0 %
Test CRC 9AFB1FCD
Copy CRC 9AFB1FCD
Copy OK

No errors occurred

AccurateRip summary

Track 1 not present in database
Track 2 not present in database
Track 3 not present in database

None of the tracks are present in the AccurateRip database

End of status report

==== Log checksum 9B7F7104CDF5246A5813BD46E37AF1EECDC3549061754B5E0ECEA7AC661D6DC6 ====

Стянуто Санычем с рутрахера по моей просьбе :thanx:
Шоб добру не пропадать: Narod. Сканы макулатуры присутствуют.

_________________
1990 AUROPHON BRAINSTORM (Germany) - lossless
1994 MAUSOLEUM CLASSIX (Belgium-Germany) - lossless
1998 VA - GRIM HARVEST - Complete Metal Massacre Volumes I-XII


Top
 Profile  
 
 
PostPosted: 09 Oct 2013 
Хиппей (support team)
User avatar
Joined: 30 Jul 2007
Posts: 114829
Lоcаtion: Киев (Kyiv, UA)
Age: 46
Name: Andrey
:thanx:

_________________


Top
 Profile E-mail  
 
Display posts from previous:  Sort by  
Post new topic Reply to topic  [ 2 posts ] 

All times are UTC + 3 hours


Who is online

Users browsing this forum: No registered users and 4 guests


You cannot post new topics in this forum
You cannot reply to topics in this forum
You cannot edit your posts in this forum
You cannot delete your posts in this forum
You cannot post attachments in this forum

Search for:
Яндекс.Метрика
Powered by phpBB © 2000, 2002, 2005, 2007 phpBB Group