\m/ 80's metal \m/

Информационно-аналитический форум "80 см пыли" (In Search We Trust) "У нас никто никуда не спешит"
Me For You - http://me-4u.com
It is currently 24 Sep 2018

All times are UTC + 3 hours

Spoiler
Chat - temporary registration for foreign users (please leave your application here)







Post new topic Reply to topic  [ 16 posts ] 
Author Message
 
PostPosted: 29 Dec 2008 
Труъ
User avatar
Joined: 02 Jul 2008
Posts: 124
Lоcаtion: Pietari [Venäjä] - Lappeenranta [Suomi]
Name: El Barto
Smashing Pumpkins - Zeitgeist

Image

Жанр: Alternative Rock
Год выпуска диска: 2007
Производитель диска: Warner Music/FGNikitin [Russia]
Аудио кодек: APE
Тип рипа: image+.cue
Битрейт аудио: lossless
Продолжительность: 52:22
Трэклист:
1. Doomsday Clock – 3:44
2. 7 Shades of Black – 3:17
3. Bleeding the Orchid – 4:03
4. That's the Way (My Love Is) – 3:48
5. Tarantula – 3:51
6. Starz – 3:43
7. United States – 9:53
8. Neverlost – 4:20
9. Bring the Light – 3:40
10. (Come On) Let's Go! – 3:19
11. For God and Country – 4:24
12. Pomp and Circumstances – 4:21
Total Time: 52:22

Quote:
Exact Audio Copy V0.99 prebeta 4 from 23. January 2008

EAC extraction logfile from 29. December 2008, 17:15

Smashing Pumpkins / Zeitgeist

Used drive : PIONEER DVD-RW DVR-111L Adapter: 0 ID: 1

Read mode : Secure
Utilize accurate stream : Yes
Defeat audio cache : Yes
Make use of C2 pointers : No

Read offset correction : 48
Overread into Lead-In and Lead-Out : No
Fill up missing offset samples with silence : Yes
Delete leading and trailing silent blocks : No
Null samples used in CRC calculations : No
Used interface : Installed external ASPI interface

Used output format : Internal WAV Routines
Sample format : 44.100 Hz; 16 Bit; Stereo

TOC of the extracted CD

Track | Start | Length | Start sector | End sector
---------------------------------------------------------
1 | 0:00.00 | 3:44.55 | 0 | 16854
2 | 3:44.55 | 3:17.07 | 16855 | 31636
3 | 7:01.62 | 4:03.43 | 31637 | 49904
4 | 11:05.30 | 3:48.60 | 49905 | 67064
5 | 14:54.15 | 3:51.25 | 67065 | 84414
6 | 18:45.40 | 3:43.10 | 84415 | 101149
7 | 22:28.50 | 9:52.72 | 101150 | 145621
8 | 32:21.47 | 4:20.70 | 145622 | 165191
9 | 36:42.42 | 3:40.40 | 165192 | 181731
10 | 40:23.07 | 3:19.18 | 181732 | 196674
11 | 43:42.25 | 4:24.60 | 196675 | 216534
12 | 48:07.10 | 4:20.11 | 216535 | 236045

Range status and errors

Selected range

Filename D:\Smashing Pumpkins - Zeitgeist\Smashing Pumpkins - Zeitgeist.wav

Peak level 99.8 %
Range quality 99.9 %
Test CRC 29244CD0
Copy CRC 29244CD0
Copy OK

No errors occurred

End of status report


DOWNLOAD: <a href="ed2k://|file|Smashing%20Pumpkins%20-%20Zeitgeist.ape|380225244|D1E75FDC6926289CB2DF9D90A250A8A0|h=ETF5D7LIDH365OGU6R5LJ6KVNB53DLBN|/">Smashing Pumpkins - Zeitgeist.ape</a>

:meloman:

_________________
Brutal Death Metal & Gore/PornGrind Maniac
My Stuff: Lakland JO US & EBMM Stingray 4 basses, Markbass Amps & Effects


Top
 Profile  
 
 
PostPosted: 29 Dec 2008 
хард н хэвщик (support team)
User avatar
Joined: 02 Jun 2008
Posts: 16880
Lоcаtion: Н.Новгород
Age: 31
Name: Артем
:shok:


Top
 Profile  
 
 
PostPosted: 29 Dec 2008 
Дежурный по КУПу
User avatar
Joined: 17 Aug 2007
Posts: 5869
Age: 50
Name: Ге
:true:

_________________
http://jp-mania.ru/
http://jp-tourdates.ucoz.ru/


Top
 Profile  
 
 
PostPosted: 29 Dec 2008 
Хиппей (support team)
User avatar
Joined: 30 Jul 2007
Posts: 106542
Lоcаtion: Киев (Kyiv, UA)
Age: 45
Name: Andrey
Валдис, жжожжжъъ :crazy: :ura:


Top
 Profile E-mail  
 
 
PostPosted: 31 Dec 2008 
КУПлетист (чёрнорабочий)
User avatar
Joined: 03 Nov 2007
Posts: 429
Age: 49
А где куй? :shok:


Top
 Profile  
 
 
PostPosted: 31 Dec 2008 
Хиппей (support team)
User avatar
Joined: 30 Jul 2007
Posts: 106542
Lоcаtion: Киев (Kyiv, UA)
Age: 45
Name: Andrey
Марко wrote:
А где куй?

Так это ж Валдес :pardon:
Code:
PERFORMER "Smashing Pumpkins"
TITLE "Zeitgeist (2007)"
FILE "Smashing Pumpkins - Zeitgeist (2007).mp3" mp3
  TRACK 01 AUDIO
    TITLE "Doomsday Clock"
    INDEX 01 00:00:00
  TRACK 02 AUDIO
    TITLE "7 Shades of Black"
    INDEX 01 03:44:55
  TRACK 03 AUDIO
    TITLE "Bleeding The Orchid"
    INDEX 01 07:01:62
  TRACK 04 AUDIO
    TITLE "That's The Way (My Love Is)"
    INDEX 01 11:05:30
  TRACK 05 AUDIO
    TITLE "Tarantula"
    INDEX 01 14:54:15
  TRACK 06 AUDIO
    TITLE "Starz"
    INDEX 01 18:45:40
  TRACK 07 AUDIO
    TITLE "United States"
    INDEX 01 22:28:50
  TRACK 08 AUDIO
    TITLE "Neverlost"
    INDEX 01 32:21:47
  TRACK 09 AUDIO
    TITLE "Bring the Light"
    INDEX 01 36:42:42
  TRACK 10 AUDIO
    TITLE "(Come on) Let's Go!"
    INDEX 01 40:23:07
  TRACK 11 AUDIO
    TITLE "For God And Country"
    INDEX 01 43:42:25
  TRACK 12 AUDIO
    TITLE "Pomp And Circumstances"
    INDEX 01 48:07:10
  TRACK 13 AUDIO
    TITLE "Zeitgeist"
    INDEX 01 52:28:22


Top
 Profile E-mail  
 
 
PostPosted: 31 Dec 2008 
Power Metal Maniac
User avatar
Joined: 09 Aug 2008
Posts: 6304
Lоcаtion: Москва
Age: 40
Name: Егор
оййй... этошь не труъ!!! :fingal:

_________________
Long Live Metal!


Top
 Profile  
 
 
PostPosted: 31 Dec 2008 
Дежурный по КУПу
User avatar
Joined: 17 Aug 2007
Posts: 5869
Age: 50
Name: Ге
Все, нашёлся куй, оказывается он в апешку интегрирован... фубар его видит :true:

_________________
http://jp-mania.ru/
http://jp-tourdates.ucoz.ru/


Top
 Profile  
 
 
PostPosted: 12 Mar 2009 
Труъ
User avatar
Joined: 02 Jul 2008
Posts: 124
Lоcаtion: Pietari [Venäjä] - Lappeenranta [Suomi]
Name: El Barto
Scatterbrain, спасиб за то что выдернул куй из арешки)))
German wrote:
фубар его видит

Да, воспроизводит без всяких проблем :meloman:

_________________
Brutal Death Metal & Gore/PornGrind Maniac
My Stuff: Lakland JO US & EBMM Stingray 4 basses, Markbass Amps & Effects


Top
 Profile  
 
 
PostPosted: 12 Mar 2009 
Пионэръ
User avatar
Joined: 22 Aug 2007
Posts: 35
Lоcаtion: Киев
Age: 38
Name: Валерий
О, хоть для меня появилось здесь интересненькое. :true: Пасиб.

_________________
white pride


Top
 Profile  
 
 
PostPosted: 13 Mar 2009 
Хиппей (support team)
User avatar
Joined: 30 Jul 2007
Posts: 106542
Lоcаtion: Киев (Kyiv, UA)
Age: 45
Name: Andrey
heroman_79 wrote:
Пасиб

Ага. Только Валдис из шары уже убрал альбом... :fingal:


Top
 Profile E-mail  
 
 
PostPosted: 13 Mar 2009 
Труъ
User avatar
Joined: 02 Jul 2008
Posts: 124
Lоcаtion: Pietari [Venäjä] - Lappeenranta [Suomi]
Name: El Barto
Quote:
из шары уже убрал альбом

Если кому то нужен этот релиз, то могу его залить на файлообменник.

_________________
Brutal Death Metal & Gore/PornGrind Maniac
My Stuff: Lakland JO US & EBMM Stingray 4 basses, Markbass Amps & Effects


Top
 Profile  
 
 
PostPosted: 13 Mar 2009 
Пионэръ
User avatar
Joined: 22 Aug 2007
Posts: 35
Lоcаtion: Киев
Age: 38
Name: Валерий
Если можно залей пожалуйста.

_________________
white pride


Top
 Profile  
 
 
PostPosted: 22 Mar 2009 
Труъ
User avatar
Joined: 02 Jul 2008
Posts: 124
Lоcаtion: Pietari [Venäjä] - Lappeenranta [Suomi]
Name: El Barto
Первая и вторая части архивчика Смэшей
http://rapidshare.com/files/212162862/S ... .part1.rar
http://rapidshare.com/files/212178834/S ... .part2.rar

_________________
Brutal Death Metal & Gore/PornGrind Maniac
My Stuff: Lakland JO US & EBMM Stingray 4 basses, Markbass Amps & Effects


Top
 Profile  
 
 
PostPosted: 22 Mar 2009 
Пионэръ
User avatar
Joined: 22 Aug 2007
Posts: 35
Lоcаtion: Киев
Age: 38
Name: Валерий
Оппа, большое спасибо! :true:

_________________
white pride


Top
 Profile  
 
 
PostPosted: 23 Mar 2009 
Хиппей (support team)
User avatar
Joined: 30 Jul 2007
Posts: 106542
Lоcаtion: Киев (Kyiv, UA)
Age: 45
Name: Andrey
Зеркальца... :oops:
Code:
http://narod.ru/disk/6912155000/Smashing_Pumpkins_2007.part1.rar.html
http://narod.ru/disk/6913587000/Smashing_Pumpkins_2007.part2%20(copy%202).rar.html


Top
 Profile E-mail  
 
Display posts from previous:  Sort by  
Post new topic Reply to topic  [ 16 posts ] 

All times are UTC + 3 hours


Who is online

Users browsing this forum: No registered users and 2 guests


You cannot post new topics in this forum
You cannot reply to topics in this forum
You cannot edit your posts in this forum
You cannot delete your posts in this forum
You cannot post attachments in this forum

Search for:
Яндекс.Метрика
Powered by phpBB © 2000, 2002, 2005, 2007 phpBB Group