\m/ 80's metal \m/

Информационно-аналитический форум "80 см пыли" (In Search We Trust) "У нас никто никуда не спешит"
Me For You - http://me-4u.com
It is currently 07 Dec 2019

All times are UTC + 3 hours

Spoiler
Chat - temporary registration for foreign users (please leave your application here)





Forum rules


Подфорум предназначен исключительно для видео-файлов (клипы, концерты, музыкальные фильмы).
"Анонсы" и "Запросы" здесь смешаны в одну кучу. Чтобы не путаться, создавая запрос, вставляем перед названием темы префикс [reqs]
Как и везде, чем больше инфы вы укажете в первом сообщении, тем лучше будет всем нам и вам.


This subforum is dedicated to video files exclusively (clips, concerts, musical films)

Announcements and Request are mixed. To avoid confusion, one should mark each request topic with a special prefix [reqs]. As in any other post on this forum, the more information you supply with your first post - the better.



Post new topic Reply to topic  [ 25 posts ]  Go to page Previous  1, 2
Author Message
 
PostPosted: 11 Jul 2009 
"ну типа, хэви-метал это круто и все такое..." ©
User avatar
Joined: 31 Aug 2008
Posts: 902
Lоcаtion: Запорожье
Name: Саня
Ищу вот это видео.
Atomkraft (UK) - Conductors of Noize
Image
Line-up:
Tony Dolan - Bass
Ian Swift - Vocals
Rob Matthews - Guitar
Ged Wolfe - Drums
1.Requiem
2.Total Metal
3.Queen Of Death
4.Vision Of Belshazzar
5.Foliage
6.Rich Bitch
7.Teutonic Pain
8.Demolition

Заранее спасибо :thanx:


Last edited by Yyz on 08 Mar 2010, edited 1 time in total.

Top
 Profile  
 
 
PostPosted: 19 Oct 2012 
Труъ
User avatar
Joined: 03 Nov 2011
Posts: 146
Lоcаtion: Киев
Name: Alex
Второй- *фелипё...трэшер*-тоже не отвечает.

_________________
...Hail to Metal 80-s!


Top
 Profile  
 
 
PostPosted: 13 Jan 2013 
Труъ
User avatar
Joined: 03 Nov 2011
Posts: 146
Lоcаtion: Киев
Name: Alex
К вопросу о том,что ищем:
Здесь 6 клипов Атомкрафт *ю-тьюбовского пошива*,творчество народов. Так или иначе-но они имеют отношение к собственно видеокассете.Клипы приведены к единому знаменателю,в формат .vob - пример одного из клипов:
media info:
Format : MPEG-PS
File size : 71.9 MiB
Duration : 4mn 34s
Overall bit rate : 2 201 Kbps

Video
ID : 224 (0xE0)
Format : MPEG Video
Format version : Version 2
Format profile : Main@Main
Format settings, BVOP : No
Format settings, Matrix : Default
Format settings, GOP : M=1, N=15
Duration : 4mn 34s
Bit rate mode : Variable
Bit rate : 1 709 Kbps
Nominal bit rate : 9 000 Kbps
Width : 352 pixels
Height : 288 pixels
Display aspect ratio : 1.222
Frame rate : 25.000 fps
Standard : PAL
Color space : YUV
Chroma subsampling : 4:2:0
Bit depth : 8 bits
Scan type : Progressive
Compression mode : Lossy
Bits/(Pixel*Frame) : 0.674
Stream size : 55.9 MiB (78%)

Audio
ID : 128 (0x80)
Format : AC-3
Format/Info : Audio Coding 3
Mode extension : CM (complete main)
Duration : 4mn 33s
Bit rate mode : Constant
Bit rate : 448 Kbps
Channel(s) : 2 channels
Channel positions : Front: L R
Sampling rate : 48.0 KHz
Bit depth : 16 bits
Compression mode : Lossy
Stream size : 14.6 MiB (20%)

Названия файлов не изменены:
Atomkraft - devils reign _ video.vob -3mn 5s
Atomkraft - Hammersmith Odeon 1987.vob -4mn 34s
Atomkraft- dance of the immortals _ video.vob - 5mn 10s
ATOMKRAFT Devils Reign VENOM.vob -2mn 57s
NWOBHM 1985 _ ATOMKRAFT - WAR ZONE.vob - 4mn 8s
NWOBHM 1987 _ ATOMKRAFT - TEUTONIC PAIN.vob - 3mn 39s
Image
Image
Image
Image
Image
Image
Image
Image
Image
------------------------------------------------
Одним файлом в архиве,323Мб,добавлена инф. для восстановления:
http://narod.ru/disk/65411226001.c850e9 ... T.rar.html


Last edited by whitemetal on 26 Oct 2014, edited 1 time in total.

Top
 Profile  
 
 
PostPosted: 23 Jul 2013 
Хиппей (support team)
User avatar
Joined: 30 Jul 2007
Posts: 116007
Lоcаtion: Киев (Kyiv, UA)
Age: 46
Name: Andrey
:thanx:

mirror: F-Bit l

_________________


Top
 Profile E-mail  
 
 
PostPosted: 24 Jul 2013 
парень в очёчкXаX!
User avatar
Joined: 15 Aug 2007
Posts: 2353
Lоcаtion: UK'раина, г. ЛондАн Би-Би-Си
Age: 49
Name: Сергей
прощелкали.. :vic:
красивые фото кассетки VHS - это всё, что осталось от улетевшего лота, с итальянского ибея :fingal:
Image


Top
 Profile  
 
 
PostPosted: 02 Oct 2014 
Труъ
User avatar
Joined: 03 Nov 2011
Posts: 146
Lоcаtion: Киев
Name: Alex
Released by Jettisoundz (p)1987
Atomkraft - Conductors of Noize VHS
Filmed live at the Hammersmith Odeon
June
20th,1987

1. Requiem
2. Total Metal
3. Queen of Death
4. Vision of Belshazzar
5. Foliage
6. Rich Bitch
7. Teutonic Pain
8. Demolition
Total time: 31mn 59s
------------------
Tony "Demolition Man" Dolan Bass
Ged Wolfe Drums
Rob Matthews Guitars
Ian "Swifty" Swift Vocals
Image
Image
Image
Image
Image
Image
Image
Image
Image
информация о происхождении:
5,5 лет поиска.На Ютьюбе всевозможные *клипы* Атомкрафта 80-х годов происходят от этого рипа,но полностью записи VHS не было.Это древний рип,этак года 2004-5,весь протёртый до дыр,появился он недавно(25 сент. 2014 г.).Был выдран с ютьюба в формате MP4,затем перекодирован в размер DVD PAL Large. В архиве-2 файла,оригинальный в MP4 и в формате DVD .vob файл. В архиве 1,16Гб.Качество изображения и звука тянет на тройку.Поиск продолжается.

media info | +
MP4:
Conductors of NoizeVHSrip.mp4
Format : MPEG-4
Format profile : Base Media / Version 2
Codec ID : mp42
File size : 155 MiB
Duration : 31mn 59s
Overall bit rate mode : Variable
Overall bit rate : 678 Kbps
Encoded date : UTC 2014-08-04 16:54:15
Tagged date : UTC 2014-08-04 16:54:15
gsst : 0
gstd : 1920056
gssd : BADC21527HH1414012120712078
gshh : r7---sn-3c27ln7l.googlevideo.com

Video
ID : 1
Format : AVC
Format/Info : Advanced Video Codec
Format profile : Baseline@L3.0
Format settings, CABAC : No
Format settings, ReFrames : 1 frame
Codec ID : avc1
Codec ID/Info : Advanced Video Coding
Duration : 31mn 59s
Bit rate : 579 Kbps
Maximum bit rate : 1 396 Kbps
Width : 480 pixels
Height : 360 pixels
Display aspect ratio : 4:3
Frame rate mode : Constant
Frame rate : 29.970 fps
Color space : YUV
Chroma subsampling : 4:2:0
Bit depth : 8 bits
Scan type : Progressive
Bits/(Pixel*Frame) : 0.112
Stream size : 133 MiB (85%)
Tagged date : UTC 2014-08-04 16:54:25

Audio
ID : 2
Format : AAC
Format/Info : Advanced Audio Codec
Format profile : LC
Codec ID : 40
Duration : 31mn 59s
Bit rate mode : Variable
Bit rate : 96.0 Kbps
Maximum bit rate : 103 Kbps
Channel(s) : 2 channels
Channel positions : Front: L R
Sampling rate : 44.1 KHz
Compression mode : Lossy
Stream size : 22.0 MiB (14%)
Title : IsoMedia File Produced by Google, 5-11-2011
Encoded date : UTC 2014-08-04 16:54:21
Tagged date : UTC 2014-08-04 16:54:25
------------------------------------------------------
VOB:
1987Atomkraft-Conductors of NoizeVHSrip.vob
Format : MPEG-PS
File size : 1.00 GiB
Duration : 31mn 59s
Overall bit rate mode : Variable
Overall bit rate : 4 495 Kbps

Video
ID : 224 (0xE0)
Format : MPEG Video
Format version : Version 2
Format profile : Main@Main
Format settings, BVOP : No
Format settings, Matrix : Default
Format settings, GOP : Variable
Duration : 31mn 59s
Bit rate mode : Variable
Bit rate : 3 958 Kbps
Maximum bit rate : 9 000 Kbps
Width : 720 pixels
Height : 576 pixels
Display aspect ratio : 5:4
Frame rate : 25.000 fps
Standard : PAL
Color space : YUV
Chroma subsampling : 4:2:0
Bit depth : 8 bits
Scan type : Progressive
Compression mode : Lossy
Bits/(Pixel*Frame) : 0.382
Time code of first frame : 00:00:00:00
Time code source : Group of pictures header
Stream size : 906 MiB (88%)

Audio
ID : 189 (0xBD)-128 (0x80)
Format : AC-3
Format/Info : Audio Coding 3
Mode extension : CM (complete main)
Format settings, Endianness : Big
Muxing mode : DVD-Video
Duration : 31mn 59s
Bit rate mode : Constant
Bit rate : 448 Kbps
Channel(s) : 2 channels
Channel positions : Front: L R
Sampling rate : 48.0 KHz
Bit depth : 16 bits
Compression mode : Lossy
Stream size : 103 MiB (10%)

https://yadi.sk/d/5X5NYZSzcFAYq


Top
 Profile  
 
Display posts from previous:  Sort by  
Post new topic Reply to topic  [ 25 posts ]  Go to page Previous  1, 2

All times are UTC + 3 hours


Who is online

Users browsing this forum: No registered users and 3 guests


You cannot post new topics in this forum
You cannot reply to topics in this forum
You cannot edit your posts in this forum
You cannot delete your posts in this forum
You cannot post attachments in this forum

Search for:
Яндекс.Метрика
Powered by phpBB © 2000, 2002, 2005, 2007 phpBB Group