\m/ 80's metal \m/

Информационно-аналитический форум "80 см пыли" (In Search We Trust) "У нас никто никуда не спешит"
Me For You - http://me-4u.com
It is currently 06 Dec 2019

All times are UTC + 3 hours

Spoiler
Chat - temporary registration for foreign users (please leave your application here)





Forum rules


Подфорум предназначен исключительно для видео-файлов (клипы, концерты, музыкальные фильмы).
"Анонсы" и "Запросы" здесь смешаны в одну кучу. Чтобы не путаться, создавая запрос, вставляем перед названием темы префикс [reqs]
Как и везде, чем больше инфы вы укажете в первом сообщении, тем лучше будет всем нам и вам.


This subforum is dedicated to video files exclusively (clips, concerts, musical films)

Announcements and Request are mixed. To avoid confusion, one should mark each request topic with a special prefix [reqs]. As in any other post on this forum, the more information you supply with your first post - the better.



Post new topic Reply to topic  [ 25 posts ]  Go to page Previous  1, 2
Author Message
 
PostPosted: 25 Jan 2009 
Thrasher
User avatar
Joined: 07 Oct 2007
Posts: 2782
Lоcаtion: Russia, Moscow
Age: 35
Name: Drunk & Evil
Warfare - Dynamo, Eindhoven, Holland 05-11-1985

Image

Image

_________________
ВОДКА, БАБЫ И БЛЮЗ / 40° till death... :bodun:
One time we saw some hookers, but when we got closer, we realised it was Mötley Crüe. ©


Top
 Profile  
 
 
PostPosted: 31 Jul 2013 
Хиппей (support team)
User avatar
Joined: 30 Jul 2007
Posts: 115987
Lоcаtion: Киев (Kyiv, UA)
Age: 46
Name: Andrey
А етить. Ну кто так заливает и хранит файлы? :cry:

Перезалейте, пожалуйста, еще раз, у кого вдруг винты лежат ближе чем мои у меня с хламом :begun:

_________________


Top
 Profile E-mail  
 
 
PostPosted: 02 Aug 2013 
Труъ
User avatar
Joined: 03 Nov 2011
Posts: 146
Lоcаtion: Киев
Name: Alex
Image

.avi media info:
Warfare-Dynamo- EindhovenHolland 05-11-1985.avi
Format : AVI
Format/Info : Audio Video Interleave
File size : 401 MiB
Duration : 39mn 59s
Overall bit rate : 1 403 Kbps
Writing application : VirtualDubMod 1.5.10.1 (build 2439/release)
Writing library : VirtualDubMod build 2439/release

Video
ID : 0
Format : MPEG-4 Visual
Format profile : Advanced Simple@L5
Format settings, BVOP : 2
Format settings, QPel : No
Format settings, GMC : No warppoints
Format settings, Matrix : Default (H.263)
Muxing mode : Packed bitstream
Codec ID : XVID
Codec ID/Hint : XviD
Duration : 39mn 59s
Bit rate : 1 135 Kbps
Width : 608 pixels
Height : 448 pixels
Display aspect ratio : 4:3
Frame rate : 29.970 fps
Color space : YUV
Chroma subsampling : 4:2:0
Bit depth : 8 bits
Scan type : Progressive
Compression mode : Lossy
Bits/(Pixel*Frame) : 0.139
Stream size : 325 MiB (81%)
Writing library : XviD 1.0.3 (UTC 2004-12-20)

Audio
ID : 1
Format : AC-3
Format/Info : Audio Coding 3
Mode extension : CM (complete main)
Format settings, Endianness : Big
Codec ID : 2000
Duration : 39mn 59s
Bit rate mode : Constant
Bit rate : 256 Kbps
Channel(s) : 2 channels
Channel positions : Front: L R
Sampling rate : 48.0 KHz
Bit depth : 16 bits
Compression mode : Lossy
Stream size : 73.2 MiB (18%)
Alignment : Split accross interleaves
Interleave, duration : 33 ms (1.00 video frame)
Interleave, preload duration : 500 ms

http://yadi.sk/d/IU_fCQKL7TySi


Last edited by whitemetal on 01 May 2014, edited 1 time in total.

Top
 Profile  
 
 
PostPosted: 02 Aug 2013 
Хиппей (support team)
User avatar
Joined: 30 Jul 2007
Posts: 115987
Lоcаtion: Киев (Kyiv, UA)
Age: 46
Name: Andrey
Обана :shok:
Спасибо! :thanx: :true: :true: :true:

mirror: F-Bit l Narod

_________________


Top
 Profile E-mail  
 
 
PostPosted: 07 Aug 2013 
Доктор энтомологии
User avatar
Joined: 22 Jan 2009
Posts: 9978
Lоcаtion: Даугавпилс
Age: 44
Name: Алексей
:true: :true: :true: :thanx: :thanx: :thanx:


Top
 Profile  
 
 
PostPosted: 04 Sep 2013 
Трешер
User avatar
Joined: 25 Feb 2011
Posts: 1143
Lоcаtion: Харьков
Age: 43
Name: Aleksandr
Опа ! Это просто чудо какое то ! :true:


Top
 Profile E-mail  
 
Display posts from previous:  Sort by  
Post new topic Reply to topic  [ 25 posts ]  Go to page Previous  1, 2

All times are UTC + 3 hours


Who is online

Users browsing this forum: No registered users and 1 guest


You cannot post new topics in this forum
You cannot reply to topics in this forum
You cannot edit your posts in this forum
You cannot delete your posts in this forum
You cannot post attachments in this forum

Search for:
Яндекс.Метрика
Powered by phpBB © 2000, 2002, 2005, 2007 phpBB Group