\m/ 80's metal \m/

Информационно-аналитический форум "80 см пыли" (In Search We Trust) "У нас никто никуда не спешит"
Me For You - http://me-4u.com
It is currently 13 Dec 2019

All times are UTC + 3 hours

Spoiler
Chat - temporary registration for foreign users (please leave your application here)





Forum rules


Подфорум предназначен исключительно для видео-файлов (клипы, концерты, музыкальные фильмы).
"Анонсы" и "Запросы" здесь смешаны в одну кучу. Чтобы не путаться, создавая запрос, вставляем перед названием темы префикс [reqs]
Как и везде, чем больше инфы вы укажете в первом сообщении, тем лучше будет всем нам и вам.


This subforum is dedicated to video files exclusively (clips, concerts, musical films)

Announcements and Request are mixed. To avoid confusion, one should mark each request topic with a special prefix [reqs]. As in any other post on this forum, the more information you supply with your first post - the better.



Post new topic Reply to topic  [ 6 posts ] 
Author Message
 
PostPosted: 16 Nov 2014 
Труъ
User avatar
Joined: 03 Nov 2011
Posts: 146
Lоcаtion: Киев
Name: Alex
http://www.brofest.co.uk/
Image
Newcastle,Northumbria University,Sunday 2nd March, 18:00-18-40
Brofest#2
Image
Image
Image
Image
Image
Image
Image
Image
media info:
Format : AVI
Format/Info : Audio Video Interleave
File size : 339 MiB
Duration : 36mn 1s
Overall bit rate mode : Variable
Overall bit rate : 1 315 Kbps
Writing application : Lavf55.12.100

Video
ID : 1
Format : MPEG-4 Visual
Format profile : Advanced Simple@L1
Format settings, BVOP : No
Format settings, QPel : No
Format settings, GMC : No warppoints
Format settings, Matrix : Default (H.263)
Codec ID : FMP4
Duration : 36mn 1s
Bit rate : 1 205 Kbps
Width : 640 pixels
Height : 360 pixels
Display aspect ratio : 16:9
Frame rate : 25.000 fps
Color space : YUV
Chroma subsampling : 4:2:0
Bit depth : 8 bits
Scan type : Progressive
Compression mode : Lossy
Bits/(Pixel*Frame) : 0.209
Stream size : 311 MiB (92%)
Writing library : Lavc55.18.102

Audio
ID : 0
Format : AAC
Format/Info : Advanced Audio Codec
Format version : Version 2
Format profile : LC
Muxing mode : ADTS
Codec ID : FF
Duration : 36mn 1s
Bit rate mode : Variable
Bit rate : 96.0 Kbps
Channel(s) : 2 channels
Channel positions : Front: L R
Sampling rate : 44.1 KHz
Compression mode : Lossy
Stream size : 24.7 MiB (7%)
Alignment : Aligned on interleaves
Interleave, duration : 40 ms (1.00 video frame)

Если будет исходный файл- заменим эту конвертацию.Снято нормально.Примерно на 30 минуте выступления появляется ещё один небезызвестный художник по металлу.
https://yadi.sk/i/O5utq2mZcjqjr


Last edited by whitemetal on 19 Nov 2014, edited 1 time in total.

Top
 Profile  
 
 
PostPosted: 16 Nov 2014 
Хиппей (support team)
User avatar
Joined: 30 Jul 2007
Posts: 116105
Lоcаtion: Киев (Kyiv, UA)
Age: 46
Name: Andrey
:thanx:

mirror: iFolder l Narod l M-Cloud

_________________


Top
 Profile E-mail  
 
 
PostPosted: 16 Mar 2015 
Хиппей (support team)
User avatar
Joined: 30 Jul 2007
Posts: 116105
Lоcаtion: Киев (Kyiv, UA)
Age: 46
Name: Andrey
whitemetal wrote:
Примерно на 30 минуте выступления появляется ещё один небезызвестный художник по металлу.

Я так пока и не понял, что за Джефф такой шустрый вышел на последние две песни... :vic:
Концерт группа играла втроём - вокал, басс - лысый жывчик Tony "Demolition Man" Dolan, упоротый худой такой наркоманского вида гитарист с бородой (вокалист его представил как Марка) и уже давно редким хайером (на меня похож весьма), который всё же не пропил "талант" и отыграл все свои партии без помарок (стоя почти неподвижно на сцене), правда лишь раз улыбнулся - в тот самый момент, когда вышел гость на сцену :lloo:
Ну и третий участник - молодой барабанист. Кто такой, не расслушивал и не рассматривал, но явно Масон http://www.metal-archives.com/artists/Steve_Mason/48180

Качество звука вполне хорошее, хоть и снято на мыльцу. Видео тоже красавца, но так же не откажусь от оригинала.
Ну и в зале было по моим прикидам от 30 до 50 человек.
Вокалист, кстати, весьма понравился - следит за формой и голосом - хрипловатый, но поющий вокал обожаю.

Спасибо еще раз за видео :thanx:

pics
Image Image Image Image Image Image Image Image
Image Image Image Image Image Image Image Image

_________________


Top
 Profile E-mail  
 
 
PostPosted: 16 Mar 2015 
Труъ
User avatar
Joined: 03 Nov 2011
Posts: 146
Lоcаtion: Киев
Name: Alex
Художник -всем художникам художник, нарисовал одну из самых главных гитарных картин по металлу середины 80-х. Можно сказать основной метал-гитарист середины 80-х.Такие пироги, Саныч.
https://myspace.com/jeffmantas
Image
Image
И ещё по теме, original NWOBHM:
Image


Last edited by whitemetal on 28 Mar 2015, edited 1 time in total.

Top
 Profile  
 
 
PostPosted: 17 Mar 2015 
Хиппей (support team)
User avatar
Joined: 30 Jul 2007
Posts: 116105
Lоcаtion: Киев (Kyiv, UA)
Age: 46
Name: Andrey
Ха, Вєном? :crazy:
А я вижу, по мастям на Мантоса похож. Но бандана или шапка на башке смутила :yyy:

Image

_________________


Top
 Profile E-mail  
 
 
PostPosted: 17 Mar 2015 
Хиппей (support team)
User avatar
Joined: 30 Jul 2007
Posts: 116105
Lоcаtion: Киев (Kyiv, UA)
Age: 46
Name: Andrey
whitemetal wrote:
И ещё по теме, original NWOBHM

Опа, спасибо :lob:
Так понимаю, трансляцию можно будет наблюдать теперь и по тырнету :dance:

_________________


Top
 Profile E-mail  
 
Display posts from previous:  Sort by  
Post new topic Reply to topic  [ 6 posts ] 

All times are UTC + 3 hours


Who is online

Users browsing this forum: No registered users and 1 guest


You cannot post new topics in this forum
You cannot reply to topics in this forum
You cannot edit your posts in this forum
You cannot delete your posts in this forum
You cannot post attachments in this forum

Search for:
Яндекс.Метрика
Powered by phpBB © 2000, 2002, 2005, 2007 phpBB Group