\m/ 80's metal \m/

Информационно-аналитический форум "80 см пыли" (In Search We Trust) "У нас никто никуда не спешит"
Me For You - http://me-4u.com
It is currently 10 Dec 2019

All times are UTC + 3 hours

Spoiler
Chat - temporary registration for foreign users (please leave your application here)





Forum rules


Подфорум предназначен исключительно для видео-файлов (клипы, концерты, музыкальные фильмы).
"Анонсы" и "Запросы" здесь смешаны в одну кучу. Чтобы не путаться, создавая запрос, вставляем перед названием темы префикс [reqs]
Как и везде, чем больше инфы вы укажете в первом сообщении, тем лучше будет всем нам и вам.


This subforum is dedicated to video files exclusively (clips, concerts, musical films)

Announcements and Request are mixed. To avoid confusion, one should mark each request topic with a special prefix [reqs]. As in any other post on this forum, the more information you supply with your first post - the better.



Post new topic Reply to topic  [ 1 post ] 
Author Message
 
PostPosted: 15 Sep 2014 
Хиппей (support team)
User avatar
Joined: 30 Jul 2007
Posts: 116047
Lоcаtion: Киев (Kyiv, UA)
Age: 46
Name: Andrey
Toad - (1978-1994) The Real Thing (2005 Akarma DVD) [DVD-5]

Image Image

Естественно, пока не смотрел этот ДВД... :pardon:
Пусть здесь побудет в комплект к лосям :arrow: viewtopic.php?f=193&t=12461

part 1 - Narod l M-Cloud
part 2 - Narod l M-Cloud
part 3 - Narod l M-Cloud
part 4 - Narod l M-Cloud
part 5 - Narod l M-Cloud

Спёрто отсюда :arrow: http://rutracker.org.ua/forum/viewtopic.php?t=1849403 :thanx:

Год выпуска: 2005
Жанр: Progressive rock

Size: 4.2 Gb

    1. Down to the Bone
    2. Hate to Hate
    3. I Don't Want to Lose You
    4. Money Don't Matter
    5. Stop This Crime
    6. War Is Dumb
    7. Let's Rock
    8. It Took Just One Minute
    9. Mad World
    10. Short Guitar Medley
    11. Tomorrow Blue
    12. Red House

    Продолжительность: 01:07:02
Quote:
This official live album and DVD, recorded in 1978 and during the 1990s, features the Swiss progressive rock band Toad's incendiary guitarist Vic Vergeat in fine form, in a set that includes many of the band's best-known songs, like "Down to the Bone," "It Took Just One Minute," and "War Is Dumb." The DVD also features some intriguing backstage material.


MediaInfo
Video
ID : 224 (0xE0)
Format : MPEG Video
Format version : Version 2
Format profile : Main@Main
Format settings, BVOP : Yes
Format settings, Matrix : Custom
Duration : 10mn 21s
Bit rate mode : Variable
Bit rate : 7 495 Kbps
Maximum bit rate : 9 800 Kbps
Width : 720 pixels
Height : 576 pixels
Display aspect ratio : 4:3
Frame rate : 25.000 fps
Standard : PAL
Color space : YUV
Chroma subsampling : 4:2:0
Bit depth : 8 bits
Scan type : Interlaced
Scan order : Top Field First
Compression mode : Lossy
Bits/(Pixel*Frame) : 0.723
Stream size : 555 MiB (96%)

Audio
ID : 189 (0xBD)-128 (0x80)
Format : AC-3
Format/Info : Audio Coding 3
Mode extension : CM (complete main)
Format settings, Endianness : Big
Muxing mode : DVD-Video
Duration : 49s 184ms
Bit rate mode : Constant
Bit rate : 192 Kbps
Channel(s) : 2 channels
Channel positions : Front: L R
Sampling rate : 48.0 KHz
Bit depth : 16 bits
Compression mode : Lossy
Stream size : 1.13 MiB (0%)

Menu

_________________


Top
 Profile E-mail  
 
Display posts from previous:  Sort by  
Post new topic Reply to topic  [ 1 post ] 

All times are UTC + 3 hours


Who is online

Users browsing this forum: No registered users and 2 guests


You cannot post new topics in this forum
You cannot reply to topics in this forum
You cannot edit your posts in this forum
You cannot delete your posts in this forum
You cannot post attachments in this forum

Search for:
Яндекс.Метрика
cron
Powered by phpBB © 2000, 2002, 2005, 2007 phpBB Group