\m/ 80's metal \m/

Информационно-аналитический форум "80 см пыли" (In Search We Trust) "У нас никто никуда не спешит"
Me For You - http://me-4u.com
It is currently 11 Dec 2019

All times are UTC + 3 hours

Spoiler
Chat - temporary registration for foreign users (please leave your application here)





Forum rules


Подфорум предназначен исключительно для видео-файлов (клипы, концерты, музыкальные фильмы).
"Анонсы" и "Запросы" здесь смешаны в одну кучу. Чтобы не путаться, создавая запрос, вставляем перед названием темы префикс [reqs]
Как и везде, чем больше инфы вы укажете в первом сообщении, тем лучше будет всем нам и вам.


This subforum is dedicated to video files exclusively (clips, concerts, musical films)

Announcements and Request are mixed. To avoid confusion, one should mark each request topic with a special prefix [reqs]. As in any other post on this forum, the more information you supply with your first post - the better.



Post new topic Reply to topic  [ 8 posts ] 
Author Message
 
PostPosted: 21 Mar 2014 
Труъ
User avatar
Joined: 03 Nov 2011
Posts: 146
Lоcаtion: Киев
Name: Alex
Raven&Girlschool - at King Tut"s ,Glasgow, 27 November,2013.
Нормальное для самопальной съёмки видео, файлы расжаты в DVD5 Large формат.
Raven-00:52:03 min.
Girlschool - 00:42:33 min.
Image
Image
Image
Image
Image
Image
Image
Raven:
http://yadi.sk/d/pu0_PIF0KxZtk
Girlschool:
http://yadi.sk/d/WaK_maugKxVkU
Raven .vob info:
Format : MPEG-PS
File size : 2.31 GiB
Duration : 52mn 3s
Overall bit rate mode : Variable
Overall bit rate : 6 364 Kbps

Video
ID : 224 (0xE0)
Format : MPEG Video
Format version : Version 2
Format profile : Main@Main
Format settings, BVOP : No
Format settings, Matrix : Default
Format settings, GOP : N=15
Duration : 52mn 3s
Bit rate mode : Variable
Bit rate : 5 789 Kbps
Maximum bit rate : 9 000 Kbps
Width : 720 pixels
Height : 576 pixels
Display aspect ratio : 5:4
Frame rate : 25.000 fps
Standard : PAL
Color space : YUV
Chroma subsampling : 4:2:0
Bit depth : 8 bits
Scan type : Progressive
Compression mode : Lossy
Bits/(Pixel*Frame) : 0.558
Time code of first frame : 00:00:00:00
Time code source : Group of pictures header
Stream size : 2.11 GiB (91%)

Audio
ID : 189 (0xBD)-128 (0x80)
Format : AC-3
Format/Info : Audio Coding 3
Mode extension : CM (complete main)
Format settings, Endianness : Big
Muxing mode : DVD-Video
Duration : 52mn 2s
Bit rate mode : Constant
Bit rate : 448 Kbps
Channel(s) : 2 channels
Channel positions : Front: L R
Sampling rate : 48.0 KHz
Bit depth : 16 bits
Compression mode : Lossy
Stream size : 167 MiB (7%)

Girlschool .vob info:
Format : MPEG-PS
File size : 1.76 GiB
Duration : 42mn 33s
Overall bit rate mode : Variable
Overall bit rate : 5 910 Kbps

Video
ID : 224 (0xE0)
Format : MPEG Video
Format version : Version 2
Format profile : Main@Main
Format settings, BVOP : No
Format settings, Matrix : Default
Format settings, GOP : N=15
Duration : 42mn 33s
Bit rate mode : Variable
Bit rate : 5 344 Kbps
Maximum bit rate : 9 000 Kbps
Width : 720 pixels
Height : 576 pixels
Display aspect ratio : 5:4
Frame rate : 25.000 fps
Standard : PAL
Color space : YUV
Chroma subsampling : 4:2:0
Bit depth : 8 bits
Scan type : Progressive
Compression mode : Lossy
Bits/(Pixel*Frame) : 0.515
Time code of first frame : 00:00:00:00
Time code source : Group of pictures header
Stream size : 1.59 GiB (90%)

Audio
ID : 189 (0xBD)-128 (0x80)
Format : AC-3
Format/Info : Audio Coding 3
Mode extension : CM (complete main)
Format settings, Endianness : Big
Muxing mode : DVD-Video
Duration : 42mn 33s
Bit rate mode : Constant
Bit rate : 448 Kbps
Channel(s) : 2 channels
Channel positions : Front: L R
Sampling rate : 48.0 KHz
Bit depth : 16 bits
Compression mode : Lossy
Stream size : 136 MiB (8%)

P.S.
Raven- приедут в Европу летом 2014,на фестиваль в Бельгии,там же будут и Chariot.
Image


Top
 Profile  
 
 
PostPosted: 23 Mar 2014 
Хиппей (support team)
User avatar
Joined: 30 Jul 2007
Posts: 116090
Lоcаtion: Киев (Kyiv, UA)
Age: 46
Name: Andrey
:shok: Фигасе размерчеги... :thanx:

Girlschool

mirror: Narod l M-Cloud

Raven

mirror: Narod - pt1 l Narod - pt2 l M-Cloud - pt1 l M-Cloud - pt2

_________________


Top
 Profile E-mail  
 
 
PostPosted: 23 Mar 2014 
Труъ
User avatar
Joined: 03 Nov 2011
Posts: 146
Lоcаtion: Киев
Name: Alex
Есть и (2Гб.) Raven в Далласе,2013(в забегаловке *Котельная* на ул. Вязов).Там изображение чуть похуже-но снимали вплотную к группе- никаких рамп, заграждений и т.д...Валят классические вещи середины 80-х, как всегда.
Image


Top
 Profile  
 
 
PostPosted: 23 Mar 2014 
Хиппей (support team)
User avatar
Joined: 30 Jul 2007
Posts: 116090
Lоcаtion: Киев (Kyiv, UA)
Age: 46
Name: Andrey
Ааа, етить, я чего-то подумал, что здесь... по клипу :shok: :oops:

Сань, а Даллас тоже редкость кагбе? :umnik:

_________________


Top
 Profile E-mail  
 
 
PostPosted: 23 Mar 2014 
Труъ
User avatar
Joined: 03 Nov 2011
Posts: 146
Lоcаtion: Киев
Name: Alex
Не редкость, дело в формате,эти которые здесь- подготовлены на болванку,на любом DVD железном плэере гонять.


Top
 Profile  
 
 
PostPosted: 23 Mar 2014 
Хиппей (support team)
User avatar
Joined: 30 Jul 2007
Posts: 116090
Lоcаtion: Киев (Kyiv, UA)
Age: 46
Name: Andrey
Понял :thanx: Тогда явно не нужно их сюда... :vic:

_________________


Top
 Profile E-mail  
 
 
PostPosted: 23 Mar 2014 
Труъ
User avatar
Joined: 03 Nov 2011
Posts: 146
Lоcаtion: Киев
Name: Alex
в этом формате-только здесь.


Top
 Profile  
 
 
PostPosted: 23 Mar 2014 
Хиппей (support team)
User avatar
Joined: 30 Jul 2007
Posts: 116090
Lоcаtion: Киев (Kyiv, UA)
Age: 46
Name: Andrey
Понял-2 :lloo:

_________________


Top
 Profile E-mail  
 
Display posts from previous:  Sort by  
Post new topic Reply to topic  [ 8 posts ] 

All times are UTC + 3 hours


Who is online

Users browsing this forum: No registered users and 2 guests


You cannot post new topics in this forum
You cannot reply to topics in this forum
You cannot edit your posts in this forum
You cannot delete your posts in this forum
You cannot post attachments in this forum

Search for:
Яндекс.Метрика
cron
Powered by phpBB © 2000, 2002, 2005, 2007 phpBB Group