\m/ 80's metal \m/

Информационно-аналитический форум "80 см пыли" (In Search We Trust) "У нас никто никуда не спешит"
Me For You - http://me-4u.com
It is currently 07 Dec 2019

All times are UTC + 3 hours

Spoiler
Chat - temporary registration for foreign users (please leave your application here)





Forum rules


Подфорум предназначен исключительно для видео-файлов (клипы, концерты, музыкальные фильмы).
"Анонсы" и "Запросы" здесь смешаны в одну кучу. Чтобы не путаться, создавая запрос, вставляем перед названием темы префикс [reqs]
Как и везде, чем больше инфы вы укажете в первом сообщении, тем лучше будет всем нам и вам.


This subforum is dedicated to video files exclusively (clips, concerts, musical films)

Announcements and Request are mixed. To avoid confusion, one should mark each request topic with a special prefix [reqs]. As in any other post on this forum, the more information you supply with your first post - the better.



Post new topic Reply to topic  [ 2 posts ] 
Author Message
 
PostPosted: 16 Mar 2014 
Труъ
User avatar
Joined: 03 Nov 2011
Posts: 146
Lоcаtion: Киев
Name: Alex
Rock Goddess - Live at the Marquee Club
2,3 February 1984, for the British TV show Live from London
Известная серия записей Live from London в клубе Marquee,изображение нормальное.
Guitar/Vocals- Jody Turner
Bass/Vocals-Dee O"Malley
Drums/Vocals-Julie Turner
-------------------------------------------
Satisfied Then Crucified
Hold Me Down
Heavy Metal Rock N' Roll
Hell Hath No Fury
My Angel
Bang Bang
Back to You
The Visitors Are Here
Gotta Let Your Hair Down
Nights In White Satin
God Be With You
I Didn't Know I Loved You(Till I Saw You Rock N' Roll)
You've Got The Fire
One Hot Night
--------------
Total time:0:59:05
TRILION PICTURES Ltd (c) 1984

Image
Image
Image
Image
Image
Image
Image
Image
Image
AVI:
http://yadi.sk/d/mCtvdWvjKbAdZ

AVI media info:
Format : AVI
Format/Info : Audio Video Interleave
Format profile : OpenDML
File size : 1.05 GiB
Duration : 59mn 5s
Overall bit rate : 2 532 Kbps
Writing application : MEncoder SVN-r30881(20100311-gcc4.3.3)
Writing library : MPlayer

Video
ID : 0
Format : MPEG-4 Visual
Format profile : Advanced Simple@L5
Format settings, BVOP : 2
Format settings, QPel : No
Format settings, GMC : No warppoints
Format settings, Matrix : Default (H.263)
Codec ID : XVID
Codec ID/Hint : XviD
Duration : 59mn 5s
Bit rate : 2 324 Kbps
Width : 760 pixels
Height : 520 pixels
Display aspect ratio : 3:2
Frame rate : 25.000 fps
Color space : YUV
Chroma subsampling : 4:2:0
Bit depth : 8 bits
Scan type : Progressive
Compression mode : Lossy
Bits/(Pixel*Frame) : 0.235
Stream size : 982 MiB (92%)
Writing library : XviD 1.2.1 (UTC 2008-12-04)

Audio
ID : 1
Format : MPEG Audio
Format version : Version 1
Format profile : Layer 3
Mode : Joint stereo
Mode extension : MS Stereo
Codec ID : 55
Codec ID/Hint : MP3
Duration : 59mn 5s
Bit rate mode : Constant
Bit rate : 192 Kbps
Channel(s) : 2 channels
Sampling rate : 44.1 KHz
Compression mode : Lossy
Delay relative to video : 40ms
Stream size : 81.2 MiB (8%)
Alignment : Aligned on interleaves
Interleave, duration : 26 ms (0.65 video frame)
Interleave, preload duration : 522 ms

DVD5:
http://yadi.sk/d/hsxe5OJhKeuTV
DVD5 info:
Image
Качество : DVD5
Формат: DVD video
Видео кодек: MPEG2
Аудио кодек: AC3
Видео: PAL 4:3 (704x576), ~ 4716.10 kbps avg, 25 fps
Аудио: Dolby AC3, 256 kbps, 48 kHz, 2 ch
другая версия, в ДВД5, качество лучшее,диск не с *Гитарс101*,но это-тоже самопал,официального быть не может.В архиве,1.91Гб.
Image
Image
Image
Image
Image
Image
Image


Last edited by whitemetal on 30 Aug 2014, edited 11 times in total.

Top
 Profile  
 
 
PostPosted: 16 Mar 2014 
Почётный металлург
User avatar
Joined: 15 Sep 2007
Posts: 4358
Lоcаtion: Хабаровск
Age: 59
Name: чуть выше
:thanx: :thanx: :thanx:

_________________
Коль будешь людей ты ослами честить,
тебе человеком меж них не прослыть!
(Саади, персидский поэт, 13в.)


Top
 Profile  
 
Display posts from previous:  Sort by  
Post new topic Reply to topic  [ 2 posts ] 

All times are UTC + 3 hours


Who is online

Users browsing this forum: No registered users and 2 guests


You cannot post new topics in this forum
You cannot reply to topics in this forum
You cannot edit your posts in this forum
You cannot delete your posts in this forum
You cannot post attachments in this forum

Search for:
Яндекс.Метрика
Powered by phpBB © 2000, 2002, 2005, 2007 phpBB Group