\m/ 80's metal \m/

Информационно-аналитический форум "80 см пыли" (In Search We Trust) "У нас никто никуда не спешит"
Me For You - http://me-4u.com
It is currently 13 Dec 2019

All times are UTC + 3 hours

Spoiler
Chat - temporary registration for foreign users (please leave your application here)





Forum rules


Подфорум предназначен исключительно для видео-файлов (клипы, концерты, музыкальные фильмы).
"Анонсы" и "Запросы" здесь смешаны в одну кучу. Чтобы не путаться, создавая запрос, вставляем перед названием темы префикс [reqs]
Как и везде, чем больше инфы вы укажете в первом сообщении, тем лучше будет всем нам и вам.


This subforum is dedicated to video files exclusively (clips, concerts, musical films)

Announcements and Request are mixed. To avoid confusion, one should mark each request topic with a special prefix [reqs]. As in any other post on this forum, the more information you supply with your first post - the better.



Post new topic Reply to topic  [ 2 posts ] 
Author Message
 
PostPosted: 02 Mar 2014 
Труъ
User avatar
Joined: 03 Nov 2011
Posts: 146
Lоcаtion: Киев
Name: Alex
Rockstage at Nottingham Theatre Royal
Show recorded - 20\08\1980
Broadcast - 4 april 1981
Duration : 35mn 33s
качество - нормальное,Eddie Clarke даже поёт.
в двух вариантах,исходником для расжатия в .avi служила версия .mpeg
--------------------------------------------
Overkill
Too late too late
Shoot you in the back
Step down (E.Clarke- voc.)
Jailbait
Leavin here
Metropolis
Train kept a rollin
Bomber
Motorhead
-----------
Drums - Phil Taylor
Lead Guitar&Vocals - Eddie Clarke
Vocals&Bass-Lemmy Kilmister
(C)ATV Network Limited MCMLXXXI

Image
Image
Image
Image
Image
Image
Image
медиа инфо.mpeg версии:
Format : MPEG-4
Format profile : Base Media / Version 2
Codec ID : mp42
File size : 169 MiB
Duration : 35mn 33s
Overall bit rate mode : Variable
Overall bit rate : 663 Kbps
Encoded date : UTC 2013-12-19 06:20:38
Tagged date : UTC 2013-12-19 06:20:38
gsst : 0
gstd : 2134006
gssd : B4A7DAD42HH1393580552382698
gshh : r5---sn-4g57kn6k.googlevideo.com

Video
ID : 1
Format : AVC
Format/Info : Advanced Video Codec
Format profile : Baseline@L2.1
Format settings, CABAC : No
Format settings, ReFrames : 1 frame
Format settings, GOP : M=1, N=60
Codec ID : avc1
Codec ID/Info : Advanced Video Coding
Duration : 35mn 33s
Bit rate : 565 Kbps
Maximum bit rate : 1 234 Kbps
Width : 480 pixels
Height : 360 pixels
Display aspect ratio : 4:3
Frame rate mode : Constant
Frame rate : 25.000 fps
Color space : YUV
Chroma subsampling : 4:2:0
Bit depth : 8 bits
Scan type : Progressive
Bits/(Pixel*Frame) : 0.131
Stream size : 144 MiB (85%)
Tagged date : UTC 2013-12-19 06:21:48

Audio
ID : 2
Format : AAC
Format/Info : Advanced Audio Codec
Format profile : LC
Codec ID : 40
Duration : 35mn 33s
Bit rate mode : Variable
Bit rate : 96.0 Kbps
Maximum bit rate : 100 Kbps
Channel(s) : 2 channels
Channel positions : Front: L R
Sampling rate : 44.1 KHz
Compression mode : Lossy
Stream size : 24.4 MiB (14%)
Title : IsoMedia File Produced by

версия .mpeg :
http://yadi.sk/d/Jpklp9JwJnPot
версия АВИ:
http://yadi.sk/d/Ylrtl_RbK4YQo
медиа инфо .avi версии:
Format : AVI
Format/Info : Audio Video Interleave
File size : 322 MiB
Duration : 35mn 33s
Overall bit rate : 1 268 Kbps
Writing application : MEncoder SVN-r30881(20100311-gcc4.3.3)
Writing library : MPlayer

Video
ID : 0
Format : MPEG-4 Visual
Format profile : Advanced Simple@L5
Format settings, BVOP : 2
Format settings, QPel : No
Format settings, GMC : No warppoints
Format settings, Matrix : Default (H.263)
Codec ID : XVID
Codec ID/Hint : XviD
Duration : 35mn 33s
Bit rate : 1 127 Kbps
Width : 480 pixels
Height : 360 pixels
Display aspect ratio : 4:3
Frame rate : 25.000 fps
Color space : YUV
Chroma subsampling : 4:2:0
Bit depth : 8 bits
Scan type : Progressive
Compression mode : Lossy
Bits/(Pixel*Frame) : 0.261
Stream size : 287 MiB (89%)
Writing library : XviD 1.2.1 (UTC 2008-12-04)

Audio
ID : 1
Format : MPEG Audio
Format version : Version 1
Format profile : Layer 3
Mode : Joint stereo
Mode extension : MS Stereo
Codec ID : 55
Codec ID/Hint : MP3
Duration : 35mn 33s
Bit rate mode : Constant
Bit rate : 128 Kbps
Channel(s) : 2 channels
Sampling rate : 44.1 KHz
Compression mode : Lossy
Delay relative to video : 40ms
Stream size : 32.6 MiB (10%)
Alignment : Aligned on interleaves
Interleave, duration : 26 ms (0.65 video frame)
Interleave, preload duration : 522 ms
Writing library : LAME3.98


Last edited by whitemetal on 25 Mar 2014, edited 9 times in total.

Top
 Profile  
 
 
PostPosted: 02 Mar 2014 
Хиппей (support team)
User avatar
Joined: 30 Jul 2007
Posts: 116105
Lоcаtion: Киев (Kyiv, UA)
Age: 46
Name: Andrey
:thanx:

_________________


Top
 Profile E-mail  
 
Display posts from previous:  Sort by  
Post new topic Reply to topic  [ 2 posts ] 

All times are UTC + 3 hours


Who is online

Users browsing this forum: No registered users and 2 guests


You cannot post new topics in this forum
You cannot reply to topics in this forum
You cannot edit your posts in this forum
You cannot delete your posts in this forum
You cannot post attachments in this forum

Search for:
Яндекс.Метрика
Powered by phpBB © 2000, 2002, 2005, 2007 phpBB Group