\m/ 80's metal \m/

Информационно-аналитический форум "80 см пыли" (In Search We Trust) "У нас никто никуда не спешит"
Me For You - http://me-4u.com
It is currently 14 Dec 2019

All times are UTC + 3 hours

Spoiler
Chat - temporary registration for foreign users (please leave your application here)





Forum rules


Подфорум предназначен исключительно для видео-файлов (клипы, концерты, музыкальные фильмы).
"Анонсы" и "Запросы" здесь смешаны в одну кучу. Чтобы не путаться, создавая запрос, вставляем перед названием темы префикс [reqs]
Как и везде, чем больше инфы вы укажете в первом сообщении, тем лучше будет всем нам и вам.


This subforum is dedicated to video files exclusively (clips, concerts, musical films)

Announcements and Request are mixed. To avoid confusion, one should mark each request topic with a special prefix [reqs]. As in any other post on this forum, the more information you supply with your first post - the better.



Post new topic Reply to topic  [ 41 posts ]  Go to page Previous  1, 2, 3
Author Message
 
PostPosted: 11 Aug 2013 
\m/ 80 см сала \m/
User avatar
Joined: 12 Mar 2012
Posts: 2590
Age: 26
Name: Nick
Image

ACCEPT - Live at Bloodstock Open Air, UK - 09 AUGUST 2013

Источник: web-rip (noob edition :benya:)
Длительность: 01:00:28
Размер видеофайла: 2,05 gb
В некоторых местах присутствуют фризы и легкий рассинхрон. Breaker немного обрезана в начале (ошибка записи).

line-up:
Peter Baltes: bass
Wolf Hoffmann: guitars
Herman Frank: guitars
Stefan Schwarzmann: drums
Mark Tornillo: vocals

set-list:
01. Hung, Drawn And Quartered
02. Stalingrad
03. Restless and Wild
04. Breaker*
05. Princess of the Dawn
06. Losers and Winners
07. Pandemic
08. Metal Heart
09. Teutonic Terror
10. Balls to the Wall
11. Fast as a Shark
* немного обрезана в начале - ошибка при записи видео-стрима

media-file info:
Code:
General
Complete name                    : C:\Accept_Bloodstock_2013.mpg
Format                           : MPEG-PS
File size                        : 2.05 GiB
Duration                         : 1h 0mn
Overall bit rate                 : 4 854 Kbps

Video
ID                               : 224 (0xE0)
Format                           : MPEG Video
Format_Commercial_IfAny          : HDV 720p
Format version                   : Version 2
Format profile                   : Main@High 1440
Format settings, BVOP            : Yes
Format settings, Matrix          : Default
Format settings, GOP             : M=3, N=6
Duration                         : 1h 0mn
Bit rate mode                    : Constant
Bit rate                         : 4 565 Kbps
Nominal bit rate                 : 4 200 Kbps
Width                            : 1 280 pixels
Height                           : 720 pixels
Display aspect ratio             : 16:9
Frame rate                       : 25.000 fps
Color space                      : YUV
Chroma subsampling               : 4:2:0
Bit depth                        : 8 bits
Scan type                        : Progressive
Compression mode                 : Lossy
Bits/(Pixel*Frame)               : 0.198
Stream size                      : 1.93 GiB (94%)

Audio
ID                               : 192 (0xC0)
Format                           : MPEG Audio
Format version                   : Version 1
Format profile                   : Layer 2
Duration                         : 1h 0mn
Bit rate mode                    : Constant
Bit rate                         : 192 Kbps
Channel(s)                       : 2 channels
Sampling rate                    : 44.1 KHz
Compression mode                 : Lossy
Stream size                      : 83.0 MiB (4%)

Image

DOWNLOAD (YANDEX.DISK)
Sample: download | youtube
mp3@vbr 0 (transcode)

p.s. кому вдруг приспичит получить исходники (готовьтесь к легкому шоку :true:) - стучите в личку.

_________________
1990 AUROPHON BRAINSTORM (Germany) - lossless
1994 MAUSOLEUM CLASSIX (Belgium-Germany) - lossless
1998 VA - GRIM HARVEST - Complete Metal Massacre Volumes I-XII


Last edited by Everhard on 15 Aug 2013, edited 9 times in total.

Top
 Profile  
 
 
PostPosted: 24 Apr 2014 
Зарегился вот...
Joined: 29 Sep 2011
Posts: 1
Lоcаtion: murcia
Name: Dani
Thanks :true:


Top
 Profile E-mail  
 
Display posts from previous:  Sort by  
Post new topic Reply to topic  [ 41 posts ]  Go to page Previous  1, 2, 3

All times are UTC + 3 hours


Who is online

Users browsing this forum: No registered users and 3 guests


You cannot post new topics in this forum
You cannot reply to topics in this forum
You cannot edit your posts in this forum
You cannot delete your posts in this forum
You cannot post attachments in this forum

Search for:
Яндекс.Метрика
cron
Powered by phpBB © 2000, 2002, 2005, 2007 phpBB Group