\m/ 80's metal \m/

Информационно-аналитический форум "80 см пыли" (In Search We Trust) "У нас никто никуда не спешит"
Me For You - http://me-4u.com
It is currently 13 Dec 2019

All times are UTC + 3 hours

Spoiler
Chat - temporary registration for foreign users (please leave your application here)





Forum rules


Подфорум предназначен исключительно для видео-файлов (клипы, концерты, музыкальные фильмы).
"Анонсы" и "Запросы" здесь смешаны в одну кучу. Чтобы не путаться, создавая запрос, вставляем перед названием темы префикс [reqs]
Как и везде, чем больше инфы вы укажете в первом сообщении, тем лучше будет всем нам и вам.


This subforum is dedicated to video files exclusively (clips, concerts, musical films)

Announcements and Request are mixed. To avoid confusion, one should mark each request topic with a special prefix [reqs]. As in any other post on this forum, the more information you supply with your first post - the better.



Post new topic Reply to topic  [ 4 posts ] 
Author Message
 
PostPosted: 13 May 2013 
Хиппей (support team)
User avatar
Joined: 30 Jul 2007
Posts: 116105
Lоcаtion: Киев (Kyiv, UA)
Age: 46
Name: Andrey
Mortal Sin - 1990 - Face Of Mayhem.divx

Image

Mortal Sin - Live @ Enmore Theatre 5.8.1989 - Sydney, Australia

Mortal Sin perform live for an Australian TV special 1989

    1. H
    2. Lebanon
    3. Terminal Reward
    4. Women in Leather
    5. Martyrs of Eternity
    6. For Richer For Poorer
    7. Voyage of the Disturbed
    8. I Am Immortal

F-Bit l Narod

Size: 417 Mb

MediaInfo
Format : DivX
Format/Info : Hack of AVI
File size : 418 MiB
Duration : 40mn 38s
Overall bit rate : 1 438 Kbps

Video
ID : 0
Format : MPEG-4 Visual
Format settings, BVOP : 1
Format settings, QPel : No
Format settings, GMC : No warppoints
Format settings, Matrix : Default (H.263)
Muxing mode : Packed bitstream
Codec ID : DX50
Codec ID/Hint : DivX 5
Duration : 40mn 38s
Bit rate : 1 300 Kbps
Width : 720 pixels
Height : 576 pixels
Display aspect ratio : 5:4
Frame rate : 25.000 fps
Standard : PAL
Color space : YUV
Chroma subsampling : 4:2:0
Bit depth : 8 bits
Scan type : Progressive
Compression mode : Lossy
Bits/(Pixel*Frame) : 0.125
Stream size : 378 MiB (90%)
Title : Video
Writing library : DivX 6.2.5 (UTC 2006-07)

Audio
ID : 1
Format : MPEG Audio
Format version : Version 1
Format profile : Layer 3
Mode : Dual mono
Codec ID : 55
Codec ID/Hint : MP3
Duration : 40mn 38s
Bit rate mode : Constant
Bit rate : 128 Kbps
Channel(s) : 2 channels
Sampling rate : 48.0 KHz
Compression mode : Lossy
Stream size : 37.2 MiB (9%)
Alignment : Split accross interleaves
Interleave, duration : 40 ms (1.00 video frame)
Interleave, preload duration : 500 ms
Title : Audio



Официальное видео-издание группы, выходившее только на VHS-кассете.
Качество... Кажись, на Ютубе оно залито в более солидном качестве :crazy:
Проф-съемка несколькими камеры для местного австралийского ТВ. Шоу отличное, хотя и без всяких изысков. Вышли, Начали играть, перед вторым трэком бахнули "ядерным" взрывом и отпилили всё шоу. Затем ушли куда-то... :vic:
Явно где-то этот концерт давно есть в формате DVD. Пока не проверял :pardon:

Несколько скринов для убедительности и проверки качества добавлю вечерком.

phpBB [youtube]


http://www.metal-archives.com/albums/Mo ... Live/10858

_________________


Top
 Profile E-mail  
 
 
PostPosted: 14 May 2013 
Хиппей (support team)
User avatar
Joined: 30 Jul 2007
Posts: 116105
Lоcаtion: Киев (Kyiv, UA)
Age: 46
Name: Andrey
Ой... :fingal: http://80s.takemetal.com/viewtopic.php?f=5&t=7161
Ну, авось и так сойдёт :crazy:

_________________


Top
 Profile E-mail  
 
 
PostPosted: 24 Aug 2013 
Хиппей (support team)
User avatar
Joined: 30 Jul 2007
Posts: 116105
Lоcаtion: Киев (Kyiv, UA)
Age: 46
Name: Andrey
screens
Image
Image
Image
Image
Image
Image
Image
Image
Image
Image
Image
Image
Image
Image
Image
Image
Image
Image
Image
Image
Image
Image
Image
Image
Image
Image
Image
Image
Image
Image
Image
Image
Image

_________________


Top
 Profile E-mail  
 
 
PostPosted: 25 Oct 2014 
Труъ
User avatar
Joined: 03 Nov 2011
Posts: 146
Lоcаtion: Киев
Name: Alex
Image
O.k.!


Top
 Profile  
 
Display posts from previous:  Sort by  
Post new topic Reply to topic  [ 4 posts ] 

All times are UTC + 3 hours


Who is online

Users browsing this forum: No registered users and 2 guests


You cannot post new topics in this forum
You cannot reply to topics in this forum
You cannot edit your posts in this forum
You cannot delete your posts in this forum
You cannot post attachments in this forum

Search for:
Яндекс.Метрика
Powered by phpBB © 2000, 2002, 2005, 2007 phpBB Group