\m/ 80's metal \m/

Информационно-аналитический форум "80 см пыли" (In Search We Trust) "У нас никто никуда не спешит"
Me For You - http://me-4u.com
It is currently 07 Dec 2019

All times are UTC + 3 hours

Spoiler
Chat - temporary registration for foreign users (please leave your application here)





Forum rules


Подфорум предназначен исключительно для видео-файлов (клипы, концерты, музыкальные фильмы).
"Анонсы" и "Запросы" здесь смешаны в одну кучу. Чтобы не путаться, создавая запрос, вставляем перед названием темы префикс [reqs]
Как и везде, чем больше инфы вы укажете в первом сообщении, тем лучше будет всем нам и вам.


This subforum is dedicated to video files exclusively (clips, concerts, musical films)

Announcements and Request are mixed. To avoid confusion, one should mark each request topic with a special prefix [reqs]. As in any other post on this forum, the more information you supply with your first post - the better.



Post new topic Reply to topic  [ 5 posts ] 
Author Message
 
PostPosted: 12 Jan 2013 
Труъ
User avatar
Joined: 03 Nov 2011
Posts: 146
Lоcаtion: Киев
Name: Alex
Самопальная съёмка концерта. Картинка получилась не очень-всё засвечено лазерами,софитами,прожекторами и др. светотехникой. Звук как ни странно вышел вполне . В начале концерта крендель канающий под конферансье, старается объяснить публике,кто же это вышел на сцену ( в стиле начала 80-х),затем Тони Долан с бандой вступает в дело,в этот раз он притаранил Rickenbacker на сцену...

Tony Dolan- vocal,bass
Rob Matthews - guitar
Ged Wolf - drums, brother of Venom's manager.

Format : MPEG-PS
File size : 669 MiB
Duration : 39mn 59s
Overall bit rate : 2 339 Kbps

Video
ID : 224 (0xE0)
Format : MPEG Video
Format version : Version 2
Format profile : Main@Main
Format settings, BVOP : No
Format settings, Matrix : Default
Format settings, GOP : M=1, N=15
Duration : 39mn 59s
Bit rate mode : Variable
Bit rate : 1 845 Kbps
Nominal bit rate : 9 000 Kbps
Width : 640 pixels
Height : 480 pixels
Display aspect ratio : 4:3
Frame rate : 25.000 fps
Color space : YUV
Chroma subsampling : 4:2:0
Bit depth : 8 bits
Scan type : Progressive
Compression mode : Lossy
Bits/(Pixel*Frame) : 0.240
Stream size : 528 MiB (79%)

Audio
ID : 128 (0x80)
Format : AC-3
Format/Info : Audio Coding 3
Mode extension : CM (complete main)
Duration : 39mn 59s
Bit rate mode : Constant
Bit rate : 448 Kbps
Channel(s) : 2 channels
Channel positions : Front: L R
Sampling rate : 48.0 KHz
Bit depth : 16 bits
Compression mode : Lossy
Stream size : 128 MiB (19%)

ImageImageImage
ImageImageImage
ImageImageImage
-----------------------------------------------------
Одним файлом в архиве,добавлена инф. для восстановления:
http://narod.ru/disk/65398380001.f239ff ... 6.rar.html
------------------------------------------------------
Извлечена отдельно аудиодорожка,без сжатия и т.д...-можно и болванку прожечь.
Format : Wave
File size : 404 MiB
Duration : 39mn 59s
Overall bit rate : 1 411 Kbps
Recorded date : 2013
Writing application : Online Media Technologies
IURL : http://www.avs4you.com

Audio
ID : 0
Format : PCM
Codec ID : 1
Codec ID/Hint : Microsoft
Duration : 39mn 59s
Bit rate : 1 411.2 Kbps
Channel(s) : 2 channels
Sampling rate : 44.1 KHz
Bit depth : 16 bits
Stream size : 404 MiB (100%)
---------------------------------------------------------
http://narod.ru/disk/65402413001.07b22a ... 6.rar.html


Last edited by whitemetal on 31 Aug 2014, edited 3 times in total.

Top
 Profile  
 
 
PostPosted: 12 Jan 2013 
А может смените мне статус?..
User avatar
Joined: 22 Nov 2008
Posts: 973
Lоcаtion: Schelcovo,Russia
Age: 48
Name: Сергей
:thanx:
Спасибо! :true: :true: :true:


Top
 Profile  
 
 
PostPosted: 12 Jan 2013 
А может смените мне статус?..
User avatar
Joined: 22 Nov 2008
Posts: 973
Lоcаtion: Schelcovo,Russia
Age: 48
Name: Сергей
Случайно не это видео?
Atomkraft - 2005-03-26 Hardenburg, Holland


Top
 Profile  
 
 
PostPosted: 12 Jan 2013 
Труъ
User avatar
Joined: 03 Nov 2011
Posts: 146
Lоcаtion: Киев
Name: Alex
Так наверное,- дата указана...Но возможно было несколько концертов,это надо копать серьёзно,чтобы уточнить.
Вот здесь видео указано - http://fist1130.webs.com/dvdlist.htm
Это он,этот концерт.
На этой сцене в тот же день засветились Girlschool:
Image


Last edited by whitemetal on 12 Jan 2013, edited 1 time in total.

Top
 Profile  
 
 
PostPosted: 12 Jan 2013 
А может смените мне статус?..
User avatar
Joined: 22 Nov 2008
Posts: 973
Lоcаtion: Schelcovo,Russia
Age: 48
Name: Сергей
Точно,я не прочитал. :fingal:
Увидел Atomkraft и пипец....


Top
 Profile  
 
Display posts from previous:  Sort by  
Post new topic Reply to topic  [ 5 posts ] 

All times are UTC + 3 hours


Who is online

Users browsing this forum: No registered users and 2 guests


You cannot post new topics in this forum
You cannot reply to topics in this forum
You cannot edit your posts in this forum
You cannot delete your posts in this forum
You cannot post attachments in this forum

Search for:
Яндекс.Метрика
Powered by phpBB © 2000, 2002, 2005, 2007 phpBB Group