\m/ 80's metal \m/

Информационно-аналитический форум "80 см пыли" (In Search We Trust) "У нас никто никуда не спешит"
Me For You - http://me-4u.com
It is currently 10 Dec 2019

All times are UTC + 3 hours

Spoiler
Chat - temporary registration for foreign users (please leave your application here)





Forum rules


Подфорум предназначен исключительно для видео-файлов (клипы, концерты, музыкальные фильмы).
"Анонсы" и "Запросы" здесь смешаны в одну кучу. Чтобы не путаться, создавая запрос, вставляем перед названием темы префикс [reqs]
Как и везде, чем больше инфы вы укажете в первом сообщении, тем лучше будет всем нам и вам.


This subforum is dedicated to video files exclusively (clips, concerts, musical films)

Announcements and Request are mixed. To avoid confusion, one should mark each request topic with a special prefix [reqs]. As in any other post on this forum, the more information you supply with your first post - the better.



Post new topic Reply to topic  [ 13 posts ] 
Author Message
 
PostPosted: 11 Jan 2013 
Труъ
User avatar
Joined: 03 Nov 2011
Posts: 146
Lоcаtion: Киев
Name: Alex
Видеоприложение к журналу *Metal Hammer#1*1985. Venom валят свой коронный номер *Seven gates of Hell*,затем Конрад Лант демонстрирует свой звук...Видео какое есть-такое есть,а вот само звучание сохранилось хорошо,отличный и мало известный концертный микс давно известной всем вещи.

Image
Image
Image
Image
Image
Одним файлом в формате АВИ,чуть ниже в посте.


Last edited by whitemetal on 15 Jan 2013, edited 2 times in total.

Top
 Profile  
 
 
PostPosted: 14 Jan 2013 
5-speed satisfactor
User avatar
Joined: 16 Feb 2009
Posts: 3808
Lоcаtion: New York, USA
Age: 41
Name: Leonid
Спасибо. Качаю. Это откуда? С VHS?

_________________
Death rules! Metal to all who oppose!


Top
 Profile  
 
 
PostPosted: 14 Jan 2013 
Труъ
User avatar
Joined: 03 Nov 2011
Posts: 146
Lоcаtion: Киев
Name: Alex
Ну да,кстати вытащил аудиодорожку в .WAV ,послушал в Foobar 2000,результат порадовал: конкретный звук,фирма есть фирма,трушнячина тотальная,можно смело на болванку раскатывать как дописку к любому веномовскому виниловому РИПу например...


Top
 Profile  
 
 
PostPosted: 14 Jan 2013 
Хиппей (support team)
User avatar
Joined: 30 Jul 2007
Posts: 116047
Lоcаtion: Киев (Kyiv, UA)
Age: 46
Name: Andrey
:thanx:

_________________


Top
 Profile E-mail  
 
 
PostPosted: 14 Jan 2013 
Труъ
User avatar
Joined: 03 Nov 2011
Posts: 146
Lоcаtion: Киев
Name: Alex
Здесь самое правильное расжатие аудиодорожки,сделано ещё с файла в формате .ави
-----------------------------------------------------------------------------------
Image
----------------------------------------------------------
Format : Wave
File size : 85.3 MiB
Duration : 8mn 26s
Overall bit rate : 1 411 Kbps
Writing application : Online Media Technologies
IURL : http://www.avs4you.com

Audio
ID : 0
Format : PCM
Codec ID : 1
Codec ID/Hint : Microsoft
Duration : 8mn 26s
Bit rate : 1 411.2 Kbps
Channel(s) : 2 channels
Sampling rate : 44.1 KHz
Bit depth : 16 bits
Stream size : 85.3 MiB (100%)


Last edited by whitemetal on 15 Jan 2013, edited 1 time in total.

Top
 Profile  
 
 
PostPosted: 15 Jan 2013 
5-speed satisfactor
User avatar
Joined: 16 Feb 2009
Posts: 3808
Lоcаtion: New York, USA
Age: 41
Name: Leonid
Кто видео цифровал? Ты сам или ты стянул? Если ты сам, дай мне видео кассету (с возвратом разумеется), я нормально сделаю. Видеопоток очень низкий - сплошная пикселизация. Аудио и видео не синхронизированы.

_________________
Death rules! Metal to all who oppose!


Top
 Profile  
 
 
PostPosted: 15 Jan 2013 
Труъ
User avatar
Joined: 03 Nov 2011
Posts: 146
Lоcаtion: Киев
Name: Alex
Я не цифровал,это ютьюбовский вариант.Единственное,что можешь попробовать-это с файлом в АВИ формате что-нибудь сотворить:
Format : AVI
Format/Info : Audio Video Interleave
File size : 47.1 MiB
Duration : 8mn 26s
Overall bit rate : 779 Kbps
Writing application : Lavf54.29.105

Video
ID : 0
Format : MPEG-4 Visual
Format profile : Simple@L1
Format settings, BVOP : No
Format settings, QPel : No
Format settings, GMC : No warppoints
Format settings, Matrix : Default (H.263)
Codec ID : XVID
Codec ID/Hint : XviD
Duration : 8mn 26s
Bit rate : 474 Kbps
Width : 320 pixels
Height : 214 pixels
Display aspect ratio : 3:2
Frame rate : 29.920 fps
Color space : YUV
Chroma subsampling : 4:2:0
Bit depth : 8 bits
Scan type : Progressive
Compression mode : Lossy
Bits/(Pixel*Frame) : 0.231
Stream size : 28.6 MiB (61%)
Writing library : Lavc54.63.100

Audio
ID : 1
Format : MPEG Audio
Format version : Version 1
Format profile : Layer 3
Mode : Joint stereo
Codec ID : 55
Codec ID/Hint : MP3
Duration : 8mn 26s
Bit rate mode : Variable
Bit rate : 256 Kbps
Channel(s) : 2 channels
Sampling rate : 44.1 KHz
Compression mode : Lossy
Stream size : 17.7 MiB (37%)
Alignment : Aligned on interleaves
Interleave, duration : 26 ms (0.78 video frame)
Interleave, preload duration : 3 ms

Image


Top
 Profile  
 
 
PostPosted: 15 Jan 2013 
Хиппей (support team)
User avatar
Joined: 30 Jul 2007
Posts: 116047
Lоcаtion: Киев (Kyiv, UA)
Age: 46
Name: Andrey
whitemetal wrote:
Я не цифровал,это ютьюбовский вариант.

Сорри, но это мне напомнило "улучшение качества" от Ильи... viewtopic.php?f=142&t=10464 :oops:

Ни хрена, пардон, не понимаю, в кодеках и прочей технике, но... Зачем же из козявки бегемота раздувать? :vic:

_________________


Top
 Profile E-mail  
 
 
PostPosted: 15 Jan 2013 
Труъ
User avatar
Joined: 03 Nov 2011
Posts: 146
Lоcаtion: Киев
Name: Alex
Действительно не зачем,прав Саныч-оставляем последний вариант в формате АВИ,он есть исходный,который на Ю-тьб закачивался.


Top
 Profile  
 
 
PostPosted: 15 Jan 2013 
Хиппей (support team)
User avatar
Joined: 30 Jul 2007
Posts: 116047
Lоcаtion: Киев (Kyiv, UA)
Age: 46
Name: Andrey
Хм, мож я попрошу именно оригинальный вариант у аплоадера с Ютуба или поищу точно такой же у себя на винтах?
Хотя второй вариант более длительный :oops:

_________________


Top
 Profile E-mail  
 
 
PostPosted: 15 Jan 2013 
Хиппей (support team)
User avatar
Joined: 30 Jul 2007
Posts: 116047
Lоcаtion: Киев (Kyiv, UA)
Age: 46
Name: Andrey
Действительно не зачем,прав Саныч-оставляем последний вариант в формате АВИ,он есть исходный,который на Ю-тьб закачивался.

Сань, блин, ну там же Ютуб уже ужимает видео, зачем он кому-то нужен то в ужатом виде? :pardon:

_________________


Top
 Profile E-mail  
 
 
PostPosted: 16 Jan 2013 
5-speed satisfactor
User avatar
Joined: 16 Feb 2009
Posts: 3808
Lоcаtion: New York, USA
Age: 41
Name: Leonid
Youtube это не серьезно. Саныч, попроси оригинальный вариант у залившего ну или одолжи видео кассету у него для меня.

_________________
Death rules! Metal to all who oppose!


Top
 Profile  
 
 
PostPosted: 16 Jan 2013 
Труъ
User avatar
Joined: 03 Nov 2011
Posts: 146
Lоcаtion: Киев
Name: Alex
Москве проще - http://musicdvd.ru/metal-dvd/various-ar ... 5-vhs.html
Image


Top
 Profile  
 
Display posts from previous:  Sort by  
Post new topic Reply to topic  [ 13 posts ] 

All times are UTC + 3 hours


Who is online

Users browsing this forum: No registered users and 1 guest


You cannot post new topics in this forum
You cannot reply to topics in this forum
You cannot edit your posts in this forum
You cannot delete your posts in this forum
You cannot post attachments in this forum

Search for:
Яндекс.Метрика
Powered by phpBB © 2000, 2002, 2005, 2007 phpBB Group