\m/ 80's metal \m/

Информационно-аналитический форум "80 см пыли" (In Search We Trust) "У нас никто никуда не спешит"
Me For You - http://me-4u.com
It is currently 07 Dec 2019

All times are UTC + 3 hours

Spoiler
Chat - temporary registration for foreign users (please leave your application here)





Forum rules


Подфорум предназначен исключительно для видео-файлов (клипы, концерты, музыкальные фильмы).
"Анонсы" и "Запросы" здесь смешаны в одну кучу. Чтобы не путаться, создавая запрос, вставляем перед названием темы префикс [reqs]
Как и везде, чем больше инфы вы укажете в первом сообщении, тем лучше будет всем нам и вам.


This subforum is dedicated to video files exclusively (clips, concerts, musical films)

Announcements and Request are mixed. To avoid confusion, one should mark each request topic with a special prefix [reqs]. As in any other post on this forum, the more information you supply with your first post - the better.



Post new topic Reply to topic  [ 9 posts ] 
Author Message
 
PostPosted: 06 Sep 2011 
copypaster
User avatar
Joined: 02 Aug 2007
Posts: 22
Lоcаtion: WWW
Age: 28
Name: Liberator
King Diamond - 1988 - Live @ NRG Houston, TX (09.29) [DVD]-VHS-rip

Image

Страна: Denmark
Жанр: Heavy Metal
Продолжительность: 00:54:15
Год выпуска: 1988 г.
Описание:
Antique Diamond (4DVD BOXSET) - диски из коллекции Mikkey Dee (не официал)
Третий диск

Треклист:
King Diamond - Live At The NRG, Houston, Texas, USA, september 29, 1988

01. [cut] Welcome Home
02. The Invisible Guests
03. Tea
04. Come to The Sabbath
05. The Portrait
06. The Family Ghost
07. Halloween
08. Andy / Pete Solo
09. Mikkey Solo solo
10. BLack Horsemen
11. Them
12. Mercyful Fate Medley

Разбивка на главы по трекам: есть
Качество : VHSRip
Формат: DVD video
Видео кодек: MPEG2
Аудио кодек: PCM
Видео: MPEG2 Video 720x480 (4:3) 29.97fps 5 829 Kbps
Аудио: 48000Hz stereo 1536kbps [LPCM]

pt1 - MultiUp l Narod
pt2 - MultiUp l Narod
pt3 - MultiUp l Narod
pt4 - MultiUp l Narod

Size: 2.93 Gb

Уматовое шоу :true:
Жаль оператор уж очень редко брал общий план, ибо то, что творилось в зале в конце шоу (дикий мош и хэдбендинг) не уступало по накалу тому, что вытворяли музыканты на сцене :esel: :black: :zo:
зы. Первый трэк начинается не с начала (камеру не успели включить).
И вообще, чтоб было ясно - съемка велась из зала на одну камеру. Звук вполне удобоваримый, хоть и моно, картинка хороша в меру, как для такой съемки в темном и забитом народом зале.

DVD info
Video
ID : 224 (0xE0)
Format : MPEG Video
Format version : Version 2
Format profile : Main@Main
Format settings, Matrix : Default
Duration : 18mn 39s
Bit rate mode : Variable
Bit rate : 5 829 Kbps
Nominal bit rate : 9 641 Kbps
Width : 720 pixels
Height : 480 pixels
Display aspect ratio : 4:3
Frame rate : 29.970 fps
Standard : NTSC
Colorimetry : 4:2:0
Scan type : Interlaced
Scan order : Bottom Field First
Bits/(Pixel*Frame) : 0.563
Stream size : 778 MiB (76%)

Audio
ID : 160 (0xA0)
Format : PCM
Format settings, Endianness : Big
Format settings, Sign : Signed
Muxing mode : DVD-Video
Duration : 18mn 39s
Bit rate mode : Constant
Bit rate : 1 536 Kbps
Channel(s) : 2 channels
Channel positions : Front: L R
Sampling rate : 48.0 KHz
Resolution : 16 bits
Stream size : 205 MiB (20%)

Menu


screens
Attachment:
1.jpg
1.jpg [ 28.43 KiB | Viewed 150 times ]

Attachment:
2.jpg
2.jpg [ 47.66 KiB | Viewed 167 times ]

Attachment:
3.jpg
3.jpg [ 28.37 KiB | Viewed 130 times ]

Attachment:
4.jpg
4.jpg [ 31.53 KiB | Viewed 170 times ]

_________________
Fuckin' buyer-seller-trader must die


Top
 Profile  
 
 
PostPosted: 18 Dec 2011 
Пионэръ
User avatar
Joined: 06 Apr 2008
Posts: 37
Lоcаtion: Чусовой
Age: 44
Name: Сергей
:thanx:


Top
 Profile  
 
 
PostPosted: 18 Dec 2011 
Хиппей (support team)
User avatar
Joined: 30 Jul 2007
Posts: 116007
Lоcаtion: Киев (Kyiv, UA)
Age: 46
Name: Andrey
Меж тем, уже 192 скачивания :dance:

_________________


Top
 Profile E-mail  
 
 
PostPosted: 18 Dec 2011 
Пионэръ
User avatar
Joined: 06 Apr 2008
Posts: 37
Lоcаtion: Чусовой
Age: 44
Name: Сергей
А , я блин замучился его скать , а он тут под носом !


Top
 Profile  
 
 
PostPosted: 18 Dec 2011 
Хиппей (support team)
User avatar
Joined: 30 Jul 2007
Posts: 116007
Lоcаtion: Киев (Kyiv, UA)
Age: 46
Name: Andrey
Дык, Гугель же его прекрасно видит :shok:

_________________


Top
 Profile E-mail  
 
 
PostPosted: 18 Dec 2011 
Пионэръ
User avatar
Joined: 06 Apr 2008
Posts: 37
Lоcаtion: Чусовой
Age: 44
Name: Сергей
Очень старался видно .


Top
 Profile  
 
 
PostPosted: 18 Dec 2011 
Хиппей (support team)
User avatar
Joined: 30 Jul 2007
Posts: 116007
Lоcаtion: Киев (Kyiv, UA)
Age: 46
Name: Andrey
http://rutracker.org/forum/viewtopic.php?t=3718784 :cow:

_________________


Top
 Profile E-mail  
 
 
PostPosted: 18 Dec 2011 
Пионэръ
User avatar
Joined: 06 Apr 2008
Posts: 37
Lоcаtion: Чусовой
Age: 44
Name: Сергей
Не успел


Top
 Profile  
 
 
PostPosted: 18 Dec 2011 
Хиппей (support team)
User avatar
Joined: 30 Jul 2007
Posts: 116007
Lоcаtion: Киев (Kyiv, UA)
Age: 46
Name: Andrey
Угу, а вот товарищ МетолБот успел :true:

_________________


Top
 Profile E-mail  
 
Display posts from previous:  Sort by  
Post new topic Reply to topic  [ 9 posts ] 

All times are UTC + 3 hours


Who is online

Users browsing this forum: No registered users and 1 guest


You cannot post new topics in this forum
You cannot reply to topics in this forum
You cannot edit your posts in this forum
You cannot delete your posts in this forum
You cannot post attachments in this forum

Search for:
Яндекс.Метрика
Powered by phpBB © 2000, 2002, 2005, 2007 phpBB Group