\m/ 80's metal \m/

Информационно-аналитический форум "80 см пыли" (In Search We Trust) "У нас никто никуда не спешит"
Me For You - http://me-4u.com
It is currently 22 Sep 2020

All times are UTC + 3 hours

Spoiler
Chat - temporary registration for foreign users (please leave your application here)





Forum rules


Подфорум предназначен исключительно для аудио-бутлегов в формате lossless.
"Анонсы" и "Запросы" здесь смешаны в одну кучу. Чтобы не путаться, создавая запрос, вставляем перед названием темы префикс [reqs]
Как и везде, чем больше инфы Вы укажете в первом сообщении, тем лучше будет всем нам.
Минимальная информация при запросах - название группы/исполнителя, точная дата концерта и место проведения шоу.
Дополнительная инфа, как-то - сэтлисты, обложки, тикеты, скрины только приветсвуются.


Announcements and Request are mixed. To avoid confusion, one should mark each request topic with a special prefix [reqs]. As in any other post on this forum, the more information you supply with your first post - the better.



Post new topic Reply to topic  [ 83 posts ]  Go to page Previous  1, 2, 3, 4, 5

7 best studio albums of Black Sabbath
1970 - Black Sabbath 12%  12%  [ 12 ]
1970 - Paranoid 13%  13%  [ 14 ]
1971 - Master of Reality 9%  9%  [ 9 ]
1972 - Black Sabbath Vol. 4 8%  8%  [ 8 ]
1973 - Sabbath Bloody Sabbath 10%  10%  [ 10 ]
1975 - Sabotage 6%  6%  [ 6 ]
1976 - Technical Ecstasy 5%  5%  [ 5 ]
1978 - Never Say Die! 3%  3%  [ 3 ]
1980 - Heaven and Hell 10%  10%  [ 10 ]
1981 - Mob Rules 6%  6%  [ 6 ]
1983 - Born Again 5%  5%  [ 5 ]
1986 - Seventh Star 1%  1%  [ 1 ]
1987 - The Eternal Idol 2%  2%  [ 2 ]
1989 - Headless Cross 5%  5%  [ 5 ]
1990 - Tyr 1%  1%  [ 1 ]
1992 - Dehumanizer 4%  4%  [ 4 ]
1994 - Cross Purposes 2%  2%  [ 2 ]
1995 - Forbidden 0%  0%  [ 0 ]
Не люблю и не понимаю эту группу / I don't like and do not understand this group 1%  1%  [ 1 ]
Total votes : 104
Author Message
 
PostPosted: 27 Feb 2010 
5-speed satisfactor
User avatar
Joined: 16 Feb 2009
Posts: 3898
Lоcаtion: New York, USA
Age: 42
Name: Leonid
Attachment:
front.jpg
front.jpg [ 420.04 KiB | Viewed 709 times ]

Attachment:
back.jpg
back.jpg [ 343.92 KiB | Viewed 368 times ]


Вроде как бутлег, а вроде как не бутлег. Цифра - бутлег, но сама кассета, откуда было записано, - дело рук самих Саббатов. Ходит CD вокруг с неправильной скоростью, потому как при записи кассету проигрывали быстрее чем надо. А вашему вниманию предлагается лось с откорректированной скоростью. Скорость откорректирована вашим покорным при участии Роберта Диуаера с сайта sabbathlive.com (сайта уже нет). Он вычеслил во сколько надо уменьшить скорость и сказал мне. Я это сделал в СоундФордже.

Опять таки переименовываем в файл с расширением .rar. Затем переливаем, говорим мне и я удаляю.

ссылки чуть ниже (flac/tracks)

cue
PERFORMER "Black Sabbath"
TITLE "Born Again Unmixed Demos & 'The Fallen'"
REM COMMENT "This recording has the corrected speed."
REM COMMENT "Speed correction was performed by Leonid Makarovsky."
FILE "01. Hot Line.wav" WAVE
TRACK 01 AUDIO
TITLE "Hot Line"
PERFORMER "Black Sabbath"
INDEX 01 00:00:00
FILE "02. Keep It Warm.wav" WAVE
TRACK 02 AUDIO
TITLE "Keep It Warm"
PERFORMER "Black Sabbath"
INDEX 01 00:00:00
FILE "03. The Fallen.wav" WAVE
TRACK 03 AUDIO
TITLE "The Fallen"
PERFORMER "Black Sabbath"
INDEX 01 00:00:00
FILE "04. Digital Bitch.wav" WAVE
TRACK 04 AUDIO
TITLE "Digital Bitch"
PERFORMER "Black Sabbath"
INDEX 01 00:00:00
FILE "05. Stonehenge.wav" WAVE
TRACK 05 AUDIO
TITLE "Stonehenge"
PERFORMER "Black Sabbath"
INDEX 01 00:00:00
FILE "06. Trashed.wav" WAVE
TRACK 06 AUDIO
TITLE "Trashed"
PERFORMER "Black Sabbath"
INDEX 01 00:00:00
FILE "07. Zero The Hero.wav" WAVE
TRACK 07 AUDIO
TITLE "Zero The Hero"
PERFORMER "Black Sabbath"
INDEX 01 00:00:00
FILE "08. Born Again.wav" WAVE
TRACK 08 AUDIO
TITLE "Born Again"
PERFORMER "Black Sabbath"
INDEX 01 00:00:00
FILE "09. Disturbing The Priest.wav" WAVE
TRACK 09 AUDIO
TITLE "Disturbing The Priest"
PERFORMER "Black Sabbath"
INDEX 01 00:00:00


spectrum
Attachment:
spectrum.jpg
spectrum.jpg [ 302.68 KiB | Viewed 365 times ]

_________________
Death rules! Metal to all who oppose!


Top
 Profile  
 
 
PostPosted: 15 Jul 2012 
5-speed satisfactor
User avatar
Joined: 16 Feb 2009
Posts: 3898
Lоcаtion: New York, USA
Age: 42
Name: Leonid
Вася_металлист_2012 wrote:
В 24-бита переводилось ли перед редактированием? (вопрос автору)



Я не автор. Хрен его знает, кто автор. Кассету нашли и оцифровали. Но проиграли при оцифровке быстрее. Вот я и Роб Двайер уменьшили скорость. Он мне сказал во сколько, а я ему сказал самый оптимальный вариант в SoundForge.

_________________
Death rules! Metal to all who oppose!


Top
 Profile  
 
 
PostPosted: 15 Jul 2012 
***


Last edited by Вася_металлист_2012 on 14 Dec 2012, edited 2 times in total.

Top
  
 
 
PostPosted: 15 Jul 2012 
5-speed satisfactor
User avatar
Joined: 16 Feb 2009
Posts: 3898
Lоcаtion: New York, USA
Age: 42
Name: Leonid
Все что я сделал это resampling. Подобрали новый sample rate чтоб скорость была близкая к оригиналу. Ну а потом сделали resampling. В 24 бита не переводил. Если у меня изначальная WAV в 16, то в 24 переводить никогда не буду. Да и вообще я в звук обычно не вмешиваюсь. Только нормализация, если чисто audio. А если еще с video, то resampling, чтоб синхронизировать с видео. Больше ничего. Но с аналога я в 24 битах записываю.

_________________
Death rules! Metal to all who oppose!


Top
 Profile  
 
Display posts from previous:  Sort by  
Post new topic Reply to topic  [ 83 posts ]  Go to page Previous  1, 2, 3, 4, 5

All times are UTC + 3 hours


Who is online

Users browsing this forum: No registered users and 1 guest


You cannot post new topics in this forum
You cannot reply to topics in this forum
You cannot edit your posts in this forum
You cannot delete your posts in this forum
You cannot post attachments in this forum

Search for:
Яндекс.Метрика
Powered by phpBB © 2000, 2002, 2005, 2007 phpBB Group