\m/ 80's metal \m/

Информационно-аналитический форум "80 см пыли" (In Search We Trust) "У нас никто никуда не спешит"
Me For You - http://me-4u.com
It is currently 24 Feb 2020

All times are UTC + 3 hours

Spoiler
Chat - temporary registration for foreign users (please leave your application here)





Forum rules


Подфорум предназначен исключительно для аудио-бутлегов в формате lossless.
"Анонсы" и "Запросы" здесь смешаны в одну кучу. Чтобы не путаться, создавая запрос, вставляем перед названием темы префикс [reqs]
Как и везде, чем больше инфы Вы укажете в первом сообщении, тем лучше будет всем нам.
Минимальная информация при запросах - название группы/исполнителя, точная дата концерта и место проведения шоу.
Дополнительная инфа, как-то - сэтлисты, обложки, тикеты, скрины только приветсвуются.


Announcements and Request are mixed. To avoid confusion, one should mark each request topic with a special prefix [reqs]. As in any other post on this forum, the more information you supply with your first post - the better.



Post new topic Reply to topic  [ 17 posts ] 
Author Message
 
PostPosted: 26 Jan 2013 
А может смените мне статус?..
User avatar
Joined: 22 Nov 2008
Posts: 973
Lоcаtion: Schelcovo,Russia
Age: 48
Name: Сергей
Image

Riot - Rare Bonus Tracks (1996 - 2011)

01.Sailor - 06:16

"The Brethren of the Long House" (1996) Reissue 1999 Metal Blade

02.15 Rivers - 05:18
03.Red Reign - 05:27
04.Turning The Hands Of Time - 05:08

"Angel Eyes" (1997) EP

05.Danny Boy - 3:40

"Inishmore" (1997) Japanese Edition

06.Watching the Signs (Live) - 4:49
07.Nightbreaker (Live) - 4:27

"Shine On" (1998) Japanese Edition

08.Swords and Tequila (Live)- 3:24
09.Outlaw (Live) - 4:00

"Shine On" (1998) European Edition

10.Queen - 4:28

"Sons Of Society" (1999) Japanese Edition

11.Somebody - 3:42

"Through The Storm" (2002) Japanese Edition

12.Road Racin (live) - 6:50

"Army of One" (2006) Japanese Edition

13.Johnny's Back (Live) - 5:43
14.Metal soldiers (Live) - 5:00

"Immortal Soul" (2011) European Limited Edition

15.Fight Or Fall (Live) Mp3!

"Immortal Soul" (2011) Japanese Edition

Mp3

lossless

phpBB [youtube]


Last edited by snider1971 on 07 Feb 2013, edited 3 times in total.

Top
 Profile  
 
 
PostPosted: 26 Jan 2013 
А может смените мне статус?..
User avatar
Joined: 24 Dec 2008
Posts: 651
Age: 46
Name: Дмитрий
:thanx:


Top
 Profile  
 
 
PostPosted: 26 Jan 2013 
Power Metal Maniac
User avatar
Joined: 09 Aug 2008
Posts: 7078
Lоcаtion: Москва
Age: 42
Name: Егор
:thanx:

_________________
Long Live Metal!


Top
 Profile  
 
 
PostPosted: 27 Jan 2013 
Персональный статус
User avatar
Joined: 22 Oct 2011
Posts: 352
Lоcаtion: Moscow
Age: 61
Name: Серёжа
:thanx:


Top
 Profile E-mail  
 
 
PostPosted: 27 Jan 2013 
спирт 100%
User avatar
Joined: 22 Sep 2008
Posts: 4519
Age: 48
Name: Саня
Спасибо! :thanx:


Top
 Profile  
 
 
PostPosted: 07 Feb 2013 
А может смените мне статус?..
User avatar
Joined: 22 Nov 2008
Posts: 973
Lоcаtion: Schelcovo,Russia
Age: 48
Name: Сергей
Добавлен Fight Or Fall (Live) в Mp3.


Top
 Profile  
 
 
PostPosted: 07 Feb 2013 
Хиппей (support team)
User avatar
Joined: 30 Jul 2007
Posts: 117583
Lоcаtion: Киев (Kyiv, UA)
Age: 46
Name: Andrey
:thanx:

_________________


Top
 Profile E-mail  
 
 
PostPosted: 26 May 2013 
А может смените мне статус?..
User avatar
Joined: 22 Nov 2008
Posts: 973
Lоcаtion: Schelcovo,Russia
Age: 48
Name: Сергей
Image

Riot - Rare Bonus Tracks (1977 - 1993)

01.Struck by Lightning - 3:39
02.Misty Morning Rain - 3:09
03.You're All I Needed Tonight - 2:59
04.One Step Closer - 2:12
05.Hot Life - 0:25

"Fire Down Under" (1981) Reissue 1997 High Voltage Records

06.Hard Lovin' Man (Live) - 3:09
07.Showdown (Live) - 4:30
08.Loved by You (Live) - 8:02
09.Loanshark (Live) - 5:27
10.Restless Breed (Live) - 5:11
11.Swords and Tequila (Live) - 3:57

"Riot Live" (1982) Reissue Unforgotten Jewels

12.Black Mountain Woman - 5:07

"Nightbreaker" (1993) Sony Music Japan

13.I'm on the Run - 4:56

"Nightbreaker" (1994) Reissue Rising Sun Prod.

14.Faded Hero - 5:32

"Nightbreaker" (1999) Reissue Metal Blade

15.Riot – Road Racin’ (Live) - 7:50

"Monsters Of Rock" (1980)

Mp3

Lossless

Riot - Rare Bonus Tracks (1996 - 2011)

phpBB [youtube]

phpBB [youtube]

phpBB [youtube]


Top
 Profile  
 
 
PostPosted: 28 May 2013 
Хиппей (support team)
User avatar
Joined: 30 Jul 2007
Posts: 117583
Lоcаtion: Киев (Kyiv, UA)
Age: 46
Name: Andrey
:thanx:

mirror: F-Bit l Narod

_________________


Top
 Profile E-mail  
 
 
PostPosted: 04 Oct 2014 
Хиппей (support team)
User avatar
Joined: 30 Jul 2007
Posts: 117583
Lоcаtion: Киев (Kyiv, UA)
Age: 46
Name: Andrey
Из Серёгиной memberlist.php?mode=viewprofile&u=345 коллекции его же и рипы :thanx:

Не помню, где он здесь, в какой теме ссылки постил :vic:

Riot - Rare Bonus Tracks (1977 - 1993) [flac]

Image

01. Struck by Lightning - 3:39
02. Misty Morning Rain - 3:09
03. You're All I Needed Tonight - 2:59
04. One Step Closer - 2:12
05. Hot Life - 0:25

"Fire Down Under" (1981) Reissue 1997 High Voltage Records

06. Hard Lovin' Man (Live) - 3:09
07. Showdown (Live) - 4:30
08. Loved by You (Live) - 8:02
09. Loanshark (Live) - 5:27
10. Restless Breed (Live) - 5:11
11. Swords and Tequila (Live) - 3:57

"Riot Live" (1982) Reissue Unforgotten Jewels

12.Black Mountain Woman - 5:07

"Nightbreaker" (1993) Sony Music Japan

13.I'm on the Run - 4:56

"Nightbreaker" (1994) Reissue Rising Sun Prod.

14.Faded Hero - 5:32

"Nightbreaker" (1999) Reissue Metal Blade

15.Riot – Road Racin’ (Live) - 7:50

"Monsters Of Rock" (1980)

mirror: Narod l M-Cloud

log
Отчёт EAC об извлечении, выполненном 26. мая 2013, 12:04 для диска:
Riot / Rare Bonus Tracks (1977 - 1993)

Дисковод: HL-DT-STDVDRAM GT32N Adapter: 0 ID: 1
Режим чтения: Скоростной
Коррекция смещения при чтении: 0
Способность читать области Lead-in и Lead-out : Нет

Выходной формат: Внутренние WAV-операции
44.100 Гц; 16 бит; стерео

Другие параметры:
Заполнение пропущенных сэмплов тишиной : Да
Удаление блоков с тишиной в начале и конце : Нет
Установленный внешний ASPI-интерфейс


Характеристики диапазона извлечения и сообщения об ошибках
Выбранный диапазон
Имя файла C:\Users\Сергей\Music\Riot - Rare Bonus Tracks (1977 - 1993).wav

Пиковый уровень 100.0 %
CRC C659F370
Копирование... OK

Ошибок не произошло

Конец отчёта

cue
REM GENRE "Heavy Metal"
REM DISCID CD0F780F
REM COMMENT "ExactAudioCopy v0.95b4"
PERFORMER "Riot"
TITLE "Rare Bonus Tracks (1977 - 1993)"
FILE "Riot - Rare Bonus Tracks (1977 - 1993).wav" WAVE
TRACK 01 AUDIO
TITLE "01.Struck by Lightning"
PERFORMER "Riot"
INDEX 01 00:00:00
TRACK 02 AUDIO
TITLE "02.Misty Morning Rain"
PERFORMER "Riot"
INDEX 01 03:38:29
TRACK 03 AUDIO
TITLE "03.You're All I Needed Tonight"
PERFORMER "Riot"
INDEX 01 06:46:10
TRACK 04 AUDIO
TITLE "04.One Step Closer"
PERFORMER "Riot"
INDEX 01 09:44:21
TRACK 05 AUDIO
TITLE "05.Hot Life"
PERFORMER "Riot"
INDEX 01 11:56:33
TRACK 06 AUDIO
TITLE "06.Hard Lovin' Man (Live)"
PERFORMER "Riot"
INDEX 01 12:21:53
TRACK 07 AUDIO
TITLE "07.Showdown (Live)"
PERFORMER "Riot"
INDEX 01 15:33:33
TRACK 08 AUDIO
TITLE "08.Loved by You (Live)"
PERFORMER "Riot"
INDEX 01 20:03:03
TRACK 09 AUDIO
TITLE "09.Loanshark (Live)"
PERFORMER "Riot"
INDEX 01 28:02:11
TRACK 10 AUDIO
TITLE "10.Restless Breed (Live)"
PERFORMER "Riot"
INDEX 01 33:27:34
TRACK 11 AUDIO
TITLE "11.Swords and Tequila"
PERFORMER "Riot"
INDEX 01 38:45:59
TRACK 12 AUDIO
TITLE "12.Black Mountain Woman"
PERFORMER "Riot"
INDEX 01 42:28:07
TRACK 13 AUDIO
TITLE "13.I'm on the Run"
PERFORMER "Riot"
INDEX 01 47:36:12
TRACK 14 AUDIO
TITLE "14.Faded Hero"
PERFORMER "Riot"
INDEX 01 52:32:12
TRACK 15 AUDIO
TITLE "15.Riot – Road Racin’ (Live)"
PERFORMER "Riot"
INDEX 01 58:04:22


Riot - Rare Bonus Tracks (1996 - 2011) [flac]

Image

01.Sailor - 06:16

"The Brethren of the Long House" (1996) Reissue 1999 Metal Blade

02.15 Rivers - 05:18
03.Red Reign - 05:27
04.Turning The Hands Of Time - 05:08

"Angel Eyes" (1997) EP

05.Danny Boy - 3:40

"Inishmore" (1997) Japanese Edition

06.Watching the Signs (Live) - 4:49
07.Nightbreaker (Live) - 4:27

"Shine On" (1998) Japanese Edition

08.Swords and Tequila (Live)- 3:24
09.Outlaw (Live) - 4:00

"Shine On" (1998) European Edition

10.Queen - 4:28

"Sons Of Society" (1999) Japanese Edition

11.Somebody - 3:42

"Through The Storm" (2002) Japanese Edition

12.Road Racin (live) - 6:50

"Army of One" (2006) Japanese Edition

13.Johnny's Back (Live) - 5:43
14.Metal soldiers (Live) - 5:00

"Immortal Soul" (2011) European Limited Edition

mirror: Narod l M-Cloud

log
Отчёт EAC об извлечении, выполненном 25. января 2013, 19:57 для диска:
Riot / Rare Bonus Tracks (1996 - 2011)

Дисковод: HL-DT-STDVDRAM GT32N Adapter: 0 ID: 1
Режим чтения: Скоростной
Коррекция смещения при чтении: 0
Способность читать области Lead-in и Lead-out : Нет

Выходной формат: Внутренние WAV-операции
44.100 Гц; 16 бит; стерео

Другие параметры:
Заполнение пропущенных сэмплов тишиной : Да
Удаление блоков с тишиной в начале и конце : Нет
Установленный внешний ASPI-интерфейс


Характеристики диапазона извлечения и сообщения об ошибках
Выбранный диапазон
Имя файла C:\Users\Сергей\Music\Riot - Rare Bonus Tracks (1996 - 2011).wav

Пиковый уровень 100.0 %
CRC 28B042AB
Копирование... OK

Ошибок не произошло

Конец отчёта

cue
REM GENRE "Heavy Metal"
REM DATE 2013
REM DISCID C60FFD0E
REM COMMENT "ExactAudioCopy v0.95b4"
PERFORMER "Riot"
TITLE "Rare Bonus Tracks (1996 - 2011)"
FILE "Riot - Rare Bonus Tracks (1996 - 2011).wav" WAVE
TRACK 01 AUDIO
TITLE "Sailor"
PERFORMER "Riot"
INDEX 01 00:00:00
TRACK 02 AUDIO
TITLE "15 Rivers"
PERFORMER "Riot"
INDEX 01 06:16:50
TRACK 03 AUDIO
TITLE "Red Reign"
PERFORMER "Riot"
INDEX 01 11:35:25
TRACK 04 AUDIO
TITLE "Turning The Hands Of Time"
PERFORMER "Riot"
INDEX 01 17:02:35
TRACK 05 AUDIO
TITLE "Danny Boy"
PERFORMER "Riot"
INDEX 01 22:11:15
TRACK 06 AUDIO
TITLE "Watching the Signs (Live)"
PERFORMER "Riot"
INDEX 01 25:50:70
TRACK 07 AUDIO
TITLE "Nightbreaker (Live)"
PERFORMER "Riot"
INDEX 01 30:39:33
TRACK 08 AUDIO
TITLE "Swords and Tequila (Live)"
PERFORMER "Riot"
INDEX 01 35:07:33
TRACK 09 AUDIO
TITLE "Outlaw (Live)"
PERFORMER "Riot"
INDEX 01 38:49:39
TRACK 10 AUDIO
TITLE "Queen"
PERFORMER "Riot"
INDEX 01 45:41:27
TRACK 11 AUDIO
TITLE "Somebody"
PERFORMER "Riot"
INDEX 01 51:24:21
TRACK 12 AUDIO
TITLE "Road Racin (live)"
PERFORMER "Riot"
INDEX 01 56:24:08
TRACK 13 AUDIO
TITLE "Johnny's Back (Live)"
PERFORMER "Riot"
INDEX 01 60:50:48
TRACK 14 AUDIO
TITLE "Metal soldiers (Live)"
PERFORMER "Riot"
INDEX 01 64:14:15

_________________


Top
 Profile E-mail  
 
 
PostPosted: 05 Oct 2014 
консэрваторъ
User avatar
Joined: 11 Aug 2007
Posts: 17546
Lоcаtion: Псков
Age: 45
Name: Сергей
У нас, кстати, один бонус в розыске... viewtopic.php?p=69937#p69937
Quote:
Riot - 2002 - Through the Storm - 09. Somebody (Japanese bonus)

Он тут есть?..

_________________
THRASH 'EM ALL


Top
 Profile E-mail  
 
 
PostPosted: 05 Oct 2014 
Хиппей (support team)
User avatar
Joined: 30 Jul 2007
Posts: 117583
Lоcаtion: Киев (Kyiv, UA)
Age: 46
Name: Andrey
Не-а :vic:

Смотрим куи.

_________________


Top
 Profile E-mail  
 
 
PostPosted: 05 Oct 2014 
А может смените мне статус?..
User avatar
Joined: 22 Nov 2008
Posts: 973
Lоcаtion: Schelcovo,Russia
Age: 48
Name: Сергей
Riot - Rare Bonus Tracks (1977 - 1993)

01.Struck by Lightning - 3:39
02.Misty Morning Rain - 3:09
03.You're All I Needed Tonight - 2:59
04.One Step Closer - 2:12
05.Hot Life - 0:25

"Fire Down Under" (1981) Reissue 1997 High Voltage Records

06.Hard Lovin' Man (Live) - 3:09
07.Showdown (Live) - 4:30
08.Loved by You (Live) - 8:02
09.Loanshark (Live) - 5:27
10.Restless Breed (Live) - 5:11
11.Swords and Tequila (Live) - 3:57

"Riot Live" (1982) Reissue Unforgotten Jewels

12.Black Mountain Woman - 5:07

"Nightbreaker" (1993) Sony Music Japan

13.I'm on the Run - 4:56

"Nightbreaker" (1994) Reissue Rising Sun Prod.

14.Faded Hero - 5:32

"Nightbreaker" (1999) Reissue Metal Blade

15.Riot – Road Racin’ (Live) - 7:50

"Monsters Of Rock" (1980)

Riot - Rare Bonus Tracks (1996 - 2011)
Setlist:
01.Sailor - 06:16

"The Brethren of the Long House" (1996) Reissue 1999 Metal Blade

02.15 Rivers - 05:18
03.Red Reign - 05:27
04.Turning The Hands Of Time - 05:08

"Angel Eyes" (1997) EP

05.Danny Boy - 3:40

"Inishmore" (1997) Japanese Edition

06.Watching the Signs (Live) - 4:49
07.Nightbreaker (Live) - 4:27

"Shine On" (1998) Japanese Edition

08.Swords and Tequila (Live)- 3:24
09.Outlaw (Live) - 4:00

"Shine On" (1998) European Edition

10.Queen - 4:28

"Sons Of Society" (1999) Japanese Edition

11.Somebody - 3:42

"Through The Storm" (2002) Japanese Edition

12.Road Racin (live) - 6:50

"Army of One" (2006) Japanese Edition

13.Johnny's Back (Live) - 5:43
14.Metal soldiers (Live) - 5:00

"Immortal Soul" (2011) European Limited Edition

15.Fight Or Fall (Live)

"Immortal Soul" (2011) Japanese Edition only Mp3!


Top
 Profile  
 
 
PostPosted: 05 Oct 2014 
А может смените мне статус?..
User avatar
Joined: 22 Nov 2008
Posts: 973
Lоcаtion: Schelcovo,Russia
Age: 48
Name: Сергей
Андрей Саныч а зачем ты их сюда выдернул?
Они же в бутлегах есть?
Riot - 2002 - Through the Storm - 09. Somebody (Japanese bonus)
Есть,тут все бонусы собраны (кроме самого последнего)


Top
 Profile  
 
 
PostPosted: 05 Oct 2014 
Хиппей (support team)
User avatar
Joined: 30 Jul 2007
Posts: 117583
Lоcаtion: Киев (Kyiv, UA)
Age: 46
Name: Andrey
snider1971 wrote:
Андрей Саныч а зачем ты их сюда выдернул?
Они же в бутлегах есть?

Эко я тупанул то, Серёж :lloo: :fingal:

Ага, про бутлеги то совсем забыл... viewtopic.php?f=32&t=11531 и viewtopic.php?f=32&t=11229

Самое смешное, что я ведь эти оба бута не раз слушал. И было ж знакомое ощушение каких-то повторов... =)
Сейчас как-то слеплю топики :vic:

_________________


Top
 Profile E-mail  
 
 
PostPosted: 05 Oct 2014 
Хиппей (support team)
User avatar
Joined: 30 Jul 2007
Posts: 117583
Lоcаtion: Киев (Kyiv, UA)
Age: 46
Name: Andrey
Слепил, объединил :lloo:

_________________


Top
 Profile E-mail  
 
 
PostPosted: 05 Oct 2014 
консэрваторъ
User avatar
Joined: 11 Aug 2007
Posts: 17546
Lоcаtion: Псков
Age: 45
Name: Сергей
snider1971 wrote:
Есть

Ок, спасибо, вкину в бонусы перекрёстную ссылку на всякий пожаоный...

_________________
THRASH 'EM ALL


Top
 Profile E-mail  
 
Display posts from previous:  Sort by  
Post new topic Reply to topic  [ 17 posts ] 

All times are UTC + 3 hours


Who is online

Users browsing this forum: No registered users and 1 guest


You cannot post new topics in this forum
You cannot reply to topics in this forum
You cannot edit your posts in this forum
You cannot delete your posts in this forum
You cannot post attachments in this forum

Search for:
Яндекс.Метрика
cron
Powered by phpBB © 2000, 2002, 2005, 2007 phpBB Group