\m/ 80's metal \m/

Информационно-аналитический форум "80 см пыли" (In Search We Trust) "У нас никто никуда не спешит"
Me For You - http://me-4u.com
It is currently 23 Oct 2018

All times are UTC + 3 hours

Spoiler
Chat - temporary registration for foreign users (please leave your application here)





Forum rules


Image
Уважаемые товарищи лосеводы и сочувствующие им.
Предлагаем Вам ознакомиться с краткими правилами данного раздела, прежде чем что-либо постить.
Итак, вот наглядный пример того, как должна выглядеть ваша новость - viewtopic.php?f=176&t=5057
Посмотретили? Ничего сложного? Тогда погнали.
Главное, соблюдать порядок оформления и делать его максимально информативным.
Если кратко, в сообщении, помимо ссылки на самого лося, должна присутствовать инфа о том, что же находится внутри архива. Обязательно описание стиля, указание страны, откуда родом группа, наличие куя, лога и спектра - если они вообще имеются (всё это дело скрываем, используя пимпу spoiler). Как высший пилотаж - ваша собственная рецензия на альбом (можно использовать и чужую, только не забываем указывать ссылкой автора ревьюшки)
Обязательно указываем источник рипа. Если граббили диск вы сами, понятное дело, источник = ваш ник.
В остальных случаях пишем имя настоящего релизёра, или хотя бы оставлем ссылку, откуда вы скачали животное.

Беспонтовые и кривооформленные посты временно будут перемещаться в раздел "Доска позорная" (см. в самый подвал форума). Если по прошествии недели вы его так не удосужитесь исправить и оформить по-человечески, пост удаляется.
И, плиз, никаких паролей! Само собой разумеется, архив должен быть залит вами собственноручно, о тыренных ссылках речь не идёт вообще. Перед заливкой желательно прослушать альбом, авось найдёте какой-то косяк.

Всем удачи и творческого вдохновения :thanx:
зы. Вопросы и пожелания можно оставлять в этой ветке - viewtopic.php?f=203&t=5060



Post new topic Reply to topic  [ 6 posts ] 
Author Message
 
PostPosted: 11 Oct 2018 
адын фелософъ прокметолу
User avatar
Joined: 22 Oct 2009
Posts: 2702
Lоcаtion: Сочи
Age: 41
Name: Сергей
Harbinger - The Inevitable (1991)
Image
1. XL 04:46
2. Voice From The Past 06:38
3. No Shadow 06:42
4. 21 Run 05:44
5. Destiny's Darling 07:52
6. Birds Of A Feather 05:38
7. Only Fools 08:01
8. Dr. Bob 04:40
9. The Other Life 05:22

Harbinger - Demo (1990)
1. We'll Meet Again
2. Edge of Sanity
3. The Witness
TPT – 55:23

Year:1990 - 1991
Style: Melodic Progressive Metal
Country: USA
Format: Flac + log + cue + booklet
Size: 502 Mb

Line-Up
Tom Mody Guitars
Todd Hensley Guitars
Gary Sobolewski Drums
Billy Pierce Bass
Jeffrey Harris Vocals


Log
Exact Audio Copy V1.0 beta 3 from 29. August 2011

Отчёт EAC об извлечении, выполненном 9. августа 2018, 19:53

Harbinger / The Inevitable

Дисковод: ASUS DRW-24D5MT Adapter: 0 ID: 0

Режим чтения : Достоверность
Использование точного потока : Да
Отключение кэша аудио : Да
Использование указателей C2 : Нет

Коррекция смещения при чтении : 6
Способность читать области Lead-in и Lead-out : Нет
Заполнение пропущенных сэмплов тишиной : Да
Удаление блоков с тишиной в начале и конце : Нет
При вычислениях CRC использовались нулевые сэмплы : Да
Интерфейс : Встроенный Win32-интерфейс для Win NT/2000

Выходной формат : Внутренние WAV-операции
Формат сэмплов : 44.100 Гц; 16 бит; стерео


TOC извлечённого CD

Трек | Старт | Длительность | Начальный сектор | Конечный сектор
---------------------------------------------------------------------
1 | 0:00.00 | 4:24.58 | 0 | 19857
2 | 4:24.58 | 6:31.12 | 19858 | 49194
3 | 10:55.70 | 6:32.66 | 49195 | 78660
4 | 17:28.61 | 5:36.17 | 78661 | 103877
5 | 23:05.03 | 7:35.38 | 103878 | 138040
6 | 30:40.41 | 5:32.38 | 138041 | 162978
7 | 36:13.04 | 7:54.11 | 162979 | 198539
8 | 44:07.15 | 4:34.19 | 198540 | 219108
9 | 48:41.34 | 5:20.25 | 219109 | 243133
10 | 54:01.59 | 7:09.20 | 243134 | 275328
11 | 61:11.04 | 5:15.55 | 275329 | 299008
12 | 66:26.59 | 4:34.30 | 299009 | 319588


Характеристики диапазона извлечения и сообщения об ошибках

Выбранный диапазон

Имя файла C:\Users\Сергей\Downloads\Архивы\Harbinger (USA Prog Metal) - The Inevitable (1991)\Harbinger - The Inevitable.wav

Пиковый уровень 98.8 %
Скорость извлечения 2.1 X
Качество диапазона 100.0 %
CRC копии C6F4467F
Копирование... OK

Ошибок не произошло


AccurateRip: сводка

Трек 1 отсутствует в базе данных
Трек 2 отсутствует в базе данных
Трек 3 отсутствует в базе данных
Трек 4 отсутствует в базе данных
Трек 5 отсутствует в базе данных
Трек 6 отсутствует в базе данных
Трек 7 отсутствует в базе данных
Трек 8 отсутствует в базе данных
Трек 9 отсутствует в базе данных
Трек 10 отсутствует в базе данных
Трек 11 отсутствует в базе данных
Трек 12 отсутствует в базе данных

Ни одного трека нет в базе AccurateRip

Конец отчёта


Cue
REM GENRE "Heavy Metal"
REM DATE 1991
REM DISCID B910A50C
REM COMMENT "ExactAudioCopy v1.0b3"
PERFORMER "Harbinger"
TITLE "The Inevitable"
FILE "Harbinger - The Inevitable.wav" WAVE
TRACK 01 AUDIO
TITLE "XL"
PERFORMER "Harbinger"
INDEX 01 00:00:00
TRACK 02 AUDIO
TITLE "Voice from the Past"
PERFORMER "Harbinger"
INDEX 01 04:24:58
TRACK 03 AUDIO
TITLE "No Shadow"
PERFORMER "Harbinger"
INDEX 01 10:55:70
TRACK 04 AUDIO
TITLE "21 Run"
PERFORMER "Harbinger"
INDEX 01 17:28:61
TRACK 05 AUDIO
TITLE "Destiny's Darling"
PERFORMER "Harbinger"
INDEX 01 23:05:03
TRACK 06 AUDIO
TITLE "Birds of a Feather"
PERFORMER "Harbinger"
INDEX 01 30:40:41
TRACK 07 AUDIO
TITLE "Only Fools"
PERFORMER "Harbinger"
INDEX 01 36:13:04
TRACK 08 AUDIO
TITLE "Dr. Bob"
PERFORMER "Harbinger"
INDEX 01 44:07:15
TRACK 09 AUDIO
TITLE "The Other Life"
PERFORMER "Harbinger"
INDEX 01 48:41:34
TRACK 10 AUDIO
TITLE "We'll Meet Again"
PERFORMER "Harbinger"
INDEX 01 54:01:59
TRACK 11 AUDIO
TITLE "Edge of Sanity"
PERFORMER "Harbinger"
INDEX 01 61:11:04
TRACK 12 AUDIO
TITLE "The Witness"
PERFORMER "Harbinger"
INDEX 01 66:26:59


Ущё одна жемчужина прог металла, зашифрованная на М-А под вывеской Хэви метал, которая сочетает в себе Прог роковые элементы а-ля Rush, абстракцию и нестандартные муз ходы а-ля ранние Moon of Steel, эпичность старых поваров а-ля Warlord и конечно же классический прог митол а-ля Queensryche и ранних Dream Theater. Стоит обратить особое внимание на 2-х песнях.
Voice From The Past - так должен звучать Queensryche всегда :meloman:
We'll Meet Again - вызывает сильнейшую ностальгию по 80-м годам :cry:
В общем это самое лучшее из музыки что довелось мне слышать в этом году

_________________
А теперь ... клоунов и стриптизёрш!


Top
 Profile E-mail  
 
 
PostPosted: 11 Oct 2018 
Прокъмитолист
User avatar
Joined: 12 Aug 2007
Posts: 6490
Lоcаtion: Санктъ-Петербуркъ
Age: 51
Name: Олекъ
Серёг, опять спасибо :thanx: (качать нибуду патамушта уже :true: )

_________________
прокъметол - это музыко, от которово есть прок (ы)


Top
 Profile  
 
 
PostPosted: 11 Oct 2018 
адын фелософъ прокметолу
User avatar
Joined: 22 Oct 2009
Posts: 2702
Lоcаtion: Сочи
Age: 41
Name: Сергей
http://www.marsdictators.com/ и у музыкантов были многие сторонние проекты

_________________
А теперь ... клоунов и стриптизёрш!


Top
 Profile E-mail  
 
 
PostPosted: 11 Oct 2018 
Хиппей (support team)
User avatar
Joined: 30 Jul 2007
Posts: 107115
Lоcаtion: Киев (Kyiv, UA)
Age: 45
Name: Andrey
:thanx:

mirror: Uloz l Drop l Narod l M-Cloud

_________________


Top
 Profile E-mail  
 
 
PostPosted: 11 Oct 2018 
спирт 100%
User avatar
Joined: 22 Sep 2008
Posts: 4305
Age: 47
Name: Саня
:thanx:


Top
 Profile  
 
 
PostPosted: 13 Oct 2018 
Хиппей (support team)
User avatar
Joined: 30 Jul 2007
Posts: 107115
Lоcаtion: Киев (Kyiv, UA)
Age: 45
Name: Andrey
Ну так себе альбомчег..
Приятных песенок хватает, но толковых только 2-5 всего.
Ну и всё ж останусь в числе тех, что группа всё же играет Melodic Metal американского образца с некоторыми проговыми инфлюенциями.

6/10

_________________


Top
 Profile E-mail  
 
Display posts from previous:  Sort by  
Post new topic Reply to topic  [ 6 posts ] 

All times are UTC + 3 hours


Who is online

Users browsing this forum: No registered users and 2 guests


You cannot post new topics in this forum
You cannot reply to topics in this forum
You cannot edit your posts in this forum
You cannot delete your posts in this forum
You cannot post attachments in this forum

Search for:
Яндекс.Метрика
Powered by phpBB © 2000, 2002, 2005, 2007 phpBB Group