\m/ 80's metal \m/

Информационно-аналитический форум "80 см пыли" (In Search We Trust) "У нас никто никуда не спешит"
Me For You - http://me-4u.com
It is currently 05 Dec 2021

All times are UTC + 3 hours

Spoiler
Chat - temporary registration for foreign users (please leave your application here)







Post new topic Reply to topic  [ 8 posts ] 
Author Message
 
PostPosted: 06 May 2014 
Хиппей (support team)
User avatar
Joined: 30 Jul 2007
Posts: 123251
Lоcаtion: Киев (Kyiv, UA)
Age: 48
Name: Andrey
The Freedom - 1969 - Nero Su Bianco / Black On White [flac]

Image Image

    01. To Be Free
    02. The Better Side
    03. Attraction- Black On White/With You
    04. The Butt Of Deception
    05. The Truth Is Plain To See
    06. Childhood Reflections
    07. Seeing Is Believing
    08. You Won't Miss
    09. Born Again
    10. Decidedly Man
    11. Relation
    12. We Say No
    13. The Game Is Over
    14. The Better Side (working mix, single vocal)
    15. The Butt Of Deception (working mix)
    16. Born Again (dry version)

    TPT: 64:24


mirror: Narod l M-Cloud

Такая себе музычка музыкальная для ностальгирующих по 70-м и клешам :dance:

log
Exact Audio Copy V0.99 prebeta 4 from 23. January 2008

Отчёт EAC об извлечении, выполненном 21. мая 2009, 1:50

Freedom / Black On White (Nerosubianco)

Дисковод: _NEC DVD_RW ND-3550A Adapter: 0 ID: 0

Режим чтения : Достоверность
Использование точного потока : Да
Отключение кэша аудио : Да
Использование указателей C2 : Нет

Коррекция смещения при чтении : 48
Способность читать области Lead-in и Lead-out : Нет
Заполнение пропущенных сэмплов тишиной : Да
Удаление блоков с тишиной в начале и конце : Нет
При вычислениях CRC использовались нулевые сэмплы : Да
Интерфейс : Установленный внешний ASPI-интерфейс

Выходной формат : Внутренние WAV-операции
Формат сэмплов : 44.100 Гц; 16 бит; стерео


TOC извлечённого CD

Трек | Старт | Длительность | Начальный сектор | Конечный сектор
---------------------------------------------------------------------
1 | 0:00.00 | 3:20.20 | 0 | 15019
2 | 3:20.20 | 4:35.35 | 15020 | 35679
3 | 7:55.55 | 7:54.70 | 35680 | 71299
4 | 15:50.50 | 2:53.72 | 71300 | 84346
5 | 18:44.47 | 3:53.65 | 84347 | 101886
6 | 22:38.37 | 3:07.15 | 101887 | 115926
7 | 25:45.52 | 3:14.73 | 115927 | 130549
8 | 29:00.50 | 3:30.60 | 130550 | 146359
9 | 32:31.35 | 4:20.40 | 146360 | 165899
10 | 36:52.00 | 4:19.35 | 165900 | 185359
11 | 41:11.35 | 3:22.52 | 185360 | 200561
12 | 44:34.12 | 3:11.48 | 200562 | 214934
13 | 47:45.60 | 4:48.22 | 214935 | 236556
14 | 52:34.07 | 4:41.33 | 236557 | 257664
15 | 57:15.40 | 2:54.30 | 257665 | 270744
16 | 60:09.70 | 4:14.62 | 270745 | 289856


Характеристики диапазона извлечения и сообщения об ошибках

Выбранный диапазон

Имя файла D:\001-torrent\Freedom - Black On White (Nerosubianco).wav

Пиковый уровень 100.0 %
Качество диапазона 99.9 %
CRC копии 77E17FF3
Копирование... OK

Ошибок не произошло

Конец отчёта

cue
REM GENRE Rock
REM DATE 1969
REM DISCID DD0F1810
REM COMMENT "ExactAudioCopy v0.99pb4"
PERFORMER "Freedom"
TITLE "Nerosubianco"
FILE "Freedom - Nerosubianco.flac" WAVE
TRACK 01 AUDIO
TITLE "To Be Free"
PERFORMER "Freedom"
INDEX 01 00:00:00
TRACK 02 AUDIO
TITLE "The Better Side"
PERFORMER "Freedom"
INDEX 01 03:20:20
TRACK 03 AUDIO
TITLE "Attraction-Black On White-With You"
PERFORMER "Freedom"
INDEX 00 07:54:52
INDEX 01 07:55:55
TRACK 04 AUDIO
TITLE "The Butt Of Deception"
PERFORMER "Freedom"
INDEX 01 15:50:50
TRACK 05 AUDIO
TITLE "The Truth Is Plain To See"
PERFORMER "Freedom"
INDEX 00 18:43:27
INDEX 01 18:44:47
TRACK 06 AUDIO
TITLE "Childhood Refections"
PERFORMER "Freedom"
INDEX 00 22:37:22
INDEX 01 22:38:37
TRACK 07 AUDIO
TITLE "Seeing Is Believing"
PERFORMER "Freedom"
INDEX 00 25:44:50
INDEX 01 25:45:52
TRACK 08 AUDIO
TITLE "You Won'T Miss"
PERFORMER "Freedom"
INDEX 00 28:59:66
INDEX 01 29:00:50
TRACK 09 AUDIO
TITLE "Born Again"
PERFORMER "Freedom"
INDEX 01 32:31:35
TRACK 10 AUDIO
TITLE "Decidedly Man"
PERFORMER "Freedom"
INDEX 00 36:50:72
INDEX 01 36:52:00
TRACK 11 AUDIO
TITLE "Relation"
PERFORMER "Freedom"
INDEX 00 41:07:67
INDEX 01 41:11:35
TRACK 12 AUDIO
TITLE "We Say No"
PERFORMER "Freedom"
INDEX 00 44:33:12
INDEX 01 44:34:12
TRACK 13 AUDIO
TITLE "The Game Is Over"
PERFORMER "Freedom"
INDEX 00 47:44:57
INDEX 01 47:45:60
TRACK 14 AUDIO
TITLE "The Better Side (Working Mix-Single Vocal)"
PERFORMER "Freedom"
INDEX 00 52:30:73
INDEX 01 52:34:07
TRACK 15 AUDIO
TITLE "The Butt Of Deception (Working Mix)"
PERFORMER "Freedom"
INDEX 00 57:14:42
INDEX 01 57:15:40
TRACK 16 AUDIO
TITLE "Born Again (Dry Version)"
PERFORMER "Freedom"
INDEX 00 60:08:70
INDEX 01 60:09:70


phpBB [youtube]


Quote:
Группа бывших участников Procol Harum Бобби Харрисона (ударные) и Рэя Ройера (гитара), принявших участие записи "A Whiter Shade of Pale", после чего покинувших группу. Если сравнивать с Procol Harum, то влияние есть, но представленный альбом более жесткий и психоделичный. Переиздание на CD пластинки 1969 года с бонусами.

_________________


Top
 Profile E-mail  
 
 
PostPosted: 08 May 2014 
Почётный металлург
User avatar
Joined: 15 Sep 2007
Posts: 4360
Lоcаtion: Хабаровск
Age: 61
Name: чуть выше
Андрюх, ты последующие послухай, а этот так себе, на любителя 60-х, а не 70-х.

_________________
Коль будешь людей ты ослами честить,
тебе человеком меж них не прослыть!
(Саади, персидский поэт, 13в.)


Top
 Profile  
 
 
PostPosted: 08 May 2014 
Хиппей (support team)
User avatar
Joined: 30 Jul 2007
Posts: 123251
Lоcаtion: Киев (Kyiv, UA)
Age: 48
Name: Andrey
Серёж, а как он там называется и где качнуть? :oops:

_________________


Top
 Profile E-mail  
 
 
PostPosted: 08 May 2014 
Хиппей (support team)
User avatar
Joined: 30 Jul 2007
Posts: 123251
Lоcаtion: Киев (Kyiv, UA)
Age: 48
Name: Andrey
Is More Than A Word (Vertigo Records, 1972) - этот? :vic:
http://en.wikipedia.org/wiki/Freedom_(band)

http://rutracker.org/forum/viewtopic.php?t=2968703
Качаю... :thanx:

_________________


Top
 Profile E-mail  
 
 
PostPosted: 08 May 2014 
Хиппей (support team)
User avatar
Joined: 30 Jul 2007
Posts: 123251
Lоcаtion: Киев (Kyiv, UA)
Age: 48
Name: Andrey
Блин, оказывается альбом 72 года я слушал. В начале 90-х на "Дойче Велле" шла передача о Прокол Харум. Там его почти полностью и крутили :meloman:
Правда я хард-рока та мне помню :vic:

_________________


Top
 Profile E-mail  
 
 
PostPosted: 08 May 2014 
Хиппей (support team)
User avatar
Joined: 30 Jul 2007
Posts: 123251
Lоcаtion: Киев (Kyiv, UA)
Age: 48
Name: Andrey
Freedom - 1972 - More Than A Word [flacs]

Image Image Image Image

    1. Together
    2. Miss Little Louise
    3. Sweaty Feet
    4. Brainbox Jam
    5. Direction
    6. Going Down
    7. Dream
    8. Ladybird

Line-up:
Roger Saunders - (vocals, lead guitar, piano)
Steve Jolly - (lead guitar)
Pete Dennis - (vocals, bass, acoustic guitars)
Bobby Harrison - (vocals, drums, congas)

mirror: Narod l M-Cloud

log
Exact Audio Copy V0.99 prebeta 5 from 4. May 2009

EAC extraction logfile from 28. April 2010, 22:28

Freedom / More Than A Word

Used drive : PLEXTOR DVDR PX-880U Adapter: 3 ID: 0

Read mode : Secure
Utilize accurate stream : Yes
Defeat audio cache : Yes
Make use of C2 pointers : No

Read offset correction : 6
Overread into Lead-In and Lead-Out : No
Fill up missing offset samples with silence : Yes
Delete leading and trailing silent blocks : No
Null samples used in CRC calculations : Yes
Used interface : Native Win32 interface for Win NT & 2000
Gap handling : Appended to previous track

Used output format : User Defined Encoder
Selected bitrate : 1024 kBit/s
Quality : High
Add ID3 tag : No
Command line compressor : C:\Program Files\Exact Audio Copy\Flac\flac.exe
Additional command line options : -8 -V -T "ARTIST=%a" -T "TITLE=%t" -T "ALBUM=%g" -T "DATE=%y" -T "TRACKNUMBER=%n" -T "GENRE=%m" -T "COMMENT=Rip by Rob" %s


TOC of the extracted CD

Track | Start | Length | Start sector | End sector
---------------------------------------------------------
1 | 0:00.00 | 4:20.62 | 0 | 19561
2 | 4:20.62 | 3:13.20 | 19562 | 34056
3 | 7:34.07 | 3:59.70 | 34057 | 52051
4 | 11:34.02 | 7:58.60 | 52052 | 87961
5 | 19:32.62 | 5:58.67 | 87962 | 114878
6 | 25:31.54 | 4:45.08 | 114879 | 136261
7 | 30:16.62 | 2:54.63 | 136262 | 149374
8 | 33:11.50 | 4:23.07 | 149375 | 169106


Track 1

Filename D:\EAC\01 - Together.wav

Pre-gap length 0:00:02.00

Peak level 99.9 %
Track quality 100.0 %
Test CRC 7F3881C4
Copy CRC 7F3881C4
Track not present in AccurateRip database
Copy OK

Track 2

Filename D:\EAC\02 - Miss Little Louise.wav

Peak level 99.9 %
Track quality 99.9 %
Test CRC 7C900BB9
Copy CRC 7C900BB9
Track not present in AccurateRip database
Copy OK

Track 3

Filename D:\EAC\03 - Sweaty Feet.wav

Peak level 99.9 %
Track quality 100.0 %
Test CRC 0CE34D07
Copy CRC 0CE34D07
Track not present in AccurateRip database
Copy OK

Track 4

Filename D:\EAC\04 - Brainbox Jam.wav

Peak level 99.9 %
Track quality 100.0 %
Test CRC B4FB1174
Copy CRC B4FB1174
Track not present in AccurateRip database
Copy OK

Track 5

Filename D:\EAC\05 - Direction.wav

Peak level 99.9 %
Track quality 100.0 %
Test CRC 0FFD333C
Copy CRC 0FFD333C
Track not present in AccurateRip database
Copy OK

Track 6

Filename D:\EAC\06 - Going Down.wav

Peak level 99.9 %
Track quality 100.0 %
Test CRC 8860D83E
Copy CRC 8860D83E
Track not present in AccurateRip database
Copy OK

Track 7

Filename D:\EAC\07 - Dream.wav

Peak level 99.9 %
Track quality 100.0 %
Test CRC 9ECACEE2
Copy CRC 9ECACEE2
Track not present in AccurateRip database
Copy OK

Track 8

Filename D:\EAC\08 - Ladybird.wav

Peak level 99.9 %
Track quality 100.0 %
Test CRC 32F38D02
Copy CRC 32F38D02
Track not present in AccurateRip database
Copy OK


None of the tracks are present in the AccurateRip database

No errors occurred

End of status report

cue
REM GENRE "Hard Rock"
REM DATE 1972
REM DISCID 7108CE08
REM COMMENT "ExactAudioCopy v0.99pb5"
PERFORMER "Freedom"
TITLE "More Than A Word"
FILE "01 - Together.wav" WAVE
TRACK 01 AUDIO
TITLE "Together"
PERFORMER "Freedom"
INDEX 01 00:00:00
FILE "02 - Miss Little Louise.wav" WAVE
TRACK 02 AUDIO
TITLE "Miss Little Louise"
PERFORMER "Freedom"
INDEX 01 00:00:00
FILE "03 - Sweaty Feet.wav" WAVE
TRACK 03 AUDIO
TITLE "Sweaty Feet"
PERFORMER "Freedom"
INDEX 01 00:00:00
FILE "04 - Brainbox Jam.wav" WAVE
TRACK 04 AUDIO
TITLE "Brainbox Jam"
PERFORMER "Freedom"
INDEX 01 00:00:00
FILE "05 - Direction.wav" WAVE
TRACK 05 AUDIO
TITLE "Direction"
PERFORMER "Freedom"
INDEX 01 00:00:00
FILE "06 - Going Down.wav" WAVE
TRACK 06 AUDIO
TITLE "Going Down"
PERFORMER "Freedom"
INDEX 01 00:00:00
FILE "07 - Dream.wav" WAVE
TRACK 07 AUDIO
TITLE "Dream"
PERFORMER "Freedom"
INDEX 01 00:00:00
FILE "08 - Ladybird.wav" WAVE
TRACK 08 AUDIO
TITLE "Ladybird"
PERFORMER "Freedom"
INDEX 01 00:00:00

_________________


Top
 Profile E-mail  
 
 
PostPosted: 09 May 2014 
Почётный металлург
User avatar
Joined: 15 Sep 2007
Posts: 4360
Lоcаtion: Хабаровск
Age: 61
Name: чуть выше
Scatterbrain wrote:
этот?

и не только. Этот последний.

А вот другие:
Freedom at Last (BYG Actuel/ABC Records, 1970)
Freedom (reissued by Angel Air Records, originally released 1970)
Through the Years (Vertigo Records, 1971)

Выходили относительно часто и на разных фирмах. Лень сеть тормошить, по памяти помню. На Репертуаре даже были.

По мне, так они все отличные, кроме того первого.

_________________
Коль будешь людей ты ослами честить,
тебе человеком меж них не прослыть!
(Саади, персидский поэт, 13в.)


Top
 Profile  
 
 
PostPosted: 12 May 2014 
Хиппей (support team)
User avatar
Joined: 30 Jul 2007
Posts: 123251
Lоcаtion: Киев (Kyiv, UA)
Age: 48
Name: Andrey
Sergey wrote:
По мне, так они все отличные, кроме того первого.

Ну, явно я плохо разбираюсь в подобной музыке, но мне ни один альбом не понравился и вот никакого хард-рока я у группы вообще не услышал :vic:

_________________


Top
 Profile E-mail  
 
Display posts from previous:  Sort by  
Post new topic Reply to topic  [ 8 posts ] 

All times are UTC + 3 hours


Who is online

Users browsing this forum: No registered users and 1 guest


You cannot post new topics in this forum
You cannot reply to topics in this forum
You cannot edit your posts in this forum
You cannot delete your posts in this forum

Search for:
Яндекс.Метрика
Powered by phpBB © 2000, 2002, 2005, 2007 phpBB Group