\m/ 80's metal \m/

Информационно-аналитический форум "80 см пыли" (In Search We Trust) "У нас никто никуда не спешит"
Me For You - http://me-4u.com
It is currently 29 Nov 2021

All times are UTC + 3 hours

Spoiler
Chat - temporary registration for foreign users (please leave your application here)







Post new topic Reply to topic  [ 10 posts ] 
Author Message
 
PostPosted: 21 Mar 2014 
Пионэръ
User avatar
Joined: 15 Mar 2011
Posts: 17
Lоcаtion: Spain
Name: Tuco Pacífico
Los Anti-Nowhere League eran entonces una banda de Punk-Rock clasicota, muy macarra y provocativa que de repente grabaron este fantástico lp, muy progresivo y ambicioso, lleno de sintetizadores, orquestaciones, voces operísticas y coros de ñiños, un poco al estilo de lo que hicieron los Damned en "phantasmagoria".
Image
Image

Band: The Anti-Nowhere League
Album: The Perfect Crime
Year: 1987
Country: U.K.
Genre: Post Punk Rock
Format: CDRip (FLAC + CUE + LOG + Covers)
Length: 43:35 min
Size: 294 mb
Release: Tuco Pacífico[EsparaelMetal]

Image

Image

Tracklist:

1. Crime
2. Atomic Harvest
3. On the Waterfront
4. Branded
5. (I Don't Believe) This Is My England
6. Johannesburg
7. The Shining
8. Working for the Company
9. System
10. The Curtain

Скачать:
MEGA


LOG
Code:
Exact Audio Copy V1.0 beta 3 from 29. August 2011

EAC extraction logfile from 21. March 2014, 10:30

The Anti-Nowhere League / The Perfect Crime

Used drive  : MATSHITADVD-RAM UJ8B0AW   Adapter: 1  ID: 0

Read mode               : Secure
Utilize accurate stream : Yes
Defeat audio cache      : Yes
Make use of C2 pointers : No

Read offset correction                      : 102
Overread into Lead-In and Lead-Out          : No
Fill up missing offset samples with silence : Yes
Delete leading and trailing silent blocks   : No
Null samples used in CRC calculations       : Yes
Used interface                    : Native Win32 interface for Win NT & 2000

Used output format : Internal WAV Routines
Sample format      : 44.100 Hz; 16 Bit; Stereo

TOC of the extracted CD

        Track |   Start  |  Length  | Start sector | End sector    
       ---------------------------------------------------------
           1  |  0:00.00 |  3:51.60 |         0    |    17384      
           2  |  3:51.60 |  3:46.02 |     17385    |    34336      
           3  |  7:37.62 |  5:43.38 |     34337    |    60099      
           4  | 13:21.25 |  3:18.67 |     60100    |    75016      
           5  | 16:40.17 |  5:53.10 |     75017    |   101501      
           6  | 22:33.27 |  3:55.10 |    101502    |   119136      
           7  | 26:28.37 |  3:47.50 |    119137    |   136211      
           8  | 30:16.12 |  3:35.15 |    136212    |   152351      
           9  | 33:51.27 |  5:24.45 |    152352    |   176696      
          10  | 39:15.72 |  4:19.28 |    176697    |   196149      

Range status and errors

Selected range

        Filename D:\Tuco Pacífico for EPM\The Anti-Nowhere League\The Anti-Nowhere League - The Perfect Crime.wav

        Peak level 95.7 %
        Extraction speed 1.8 X
        Range quality 100.0 %
        Test CRC C3A312E2
        Copy CRC C3A312E2
        Copy OK

No errors occurred

       
AccurateRip summary
       
Track  1  accurately ripped (confidence 2)  [CE3B97FE]  (AR v1)
Track  2  accurately ripped (confidence 2)  [1561EFCD]  (AR v1)
Track  3  accurately ripped (confidence 2)  [4333A86D]  (AR v1)
Track  4  accurately ripped (confidence 2)  [D092D986]  (AR v1)
Track  5  accurately ripped (confidence 2)  [29D018FD]  (AR v1)
Track  6  accurately ripped (confidence 2)  [79348CF3]  (AR v1)
Track  7  accurately ripped (confidence 2)  [A2B57B73]  (AR v1)
Track  8  accurately ripped (confidence 2)  [79B2254A]  (AR v1)
Track  9  accurately ripped (confidence 2)  [4F18B0EC]  (AR v1)
Track 10  accurately ripped (confidence 2)  [CFE33884]  (AR v1)
       
All tracks accurately ripped

End of status report

---- CUETools DB Plugin V2.1.3

[CTDB TOCID: 3Pwyp.jE4recNpN0j5l8zmVmE54-] disk not present in database, Submit result: 3Pwyp.jE4recNpN0j5l8zmVmE54- has been uploaded

==== Log checksum E35A751B5CD0EBC820F3C75890AA42016E7C1DDC66D5901A568995D9CD81E6C1 ====



Top
 Profile E-mail  
 
 
PostPosted: 21 Mar 2014 
Хиппей (support team)
User avatar
Joined: 30 Jul 2007
Posts: 123152
Lоcаtion: Киев (Kyiv, UA)
Age: 48
Name: Andrey
:thanx:

mirror: Narod l M-Cloud

Неформат правда... :fingal:

_________________


Top
 Profile E-mail  
 
 
PostPosted: 24 Mar 2014 
Хиппей (support team)
User avatar
Joined: 30 Jul 2007
Posts: 123152
Lоcаtion: Киев (Kyiv, UA)
Age: 48
Name: Andrey
Да, кстати, музыка у группы хоть и неформатная, но альбом как раз очень показательный в том плане, что от формата до неформата мизер пройти...
В общем, если Даша вдруг еще не знакома с этой группой, рекомендую послушать именно этот релиз.
По-моему тебе подобная музыка весьма нравится :dance:

_________________


Top
 Profile E-mail  
 
 
PostPosted: 24 Mar 2014 
Дежурный по КУПу
User avatar
Joined: 17 Aug 2007
Posts: 5872
Age: 53
Name: Ге
Хороший альбом, на ура пошло! :true:
Спасибо :thanx:

_________________
http://jp-mania.ru/
http://jp-tourdates.ucoz.ru/


Top
 Profile  
 
 
PostPosted: 10 Apr 2014 
Rara avis
User avatar
Joined: 27 Jan 2009
Posts: 5918
Name: .
В общем, если Даша вдруг еще не знакома с этой группой, рекомендую послушать именно этот релиз.
По-моему тебе подобная музыка весьма нравится :dance:

:nea:


Top
 Profile E-mail  
 
 
PostPosted: 10 Apr 2014 
Rara avis
User avatar
Joined: 27 Jan 2009
Posts: 5918
Name: .
В общем, если Даша вдруг еще не знакома с этой группой, рекомендую послушать именно этот релиз.
По-моему тебе подобная музыка весьма нравится :dance:

:nea:


Top
 Profile E-mail  
 
 
PostPosted: 10 Apr 2014 
Хиппей (support team)
User avatar
Joined: 30 Jul 2007
Posts: 123152
Lоcаtion: Киев (Kyiv, UA)
Age: 48
Name: Andrey
Неужели нет? :nea: :nea:

_________________


Top
 Profile E-mail  
 
 
PostPosted: 10 Apr 2014 
Rara avis
User avatar
Joined: 27 Jan 2009
Posts: 5918
Name: .
Моя субъективная оценка 5,5/10 :pardon:


Top
 Profile E-mail  
 
 
PostPosted: 10 Apr 2014 
Хиппей (support team)
User avatar
Joined: 30 Jul 2007
Posts: 123152
Lоcаtion: Киев (Kyiv, UA)
Age: 48
Name: Andrey
Ну, спасибо хоть на этом =) :thanx:

_________________


Top
 Profile E-mail  
 
 
PostPosted: 10 Apr 2014 
Хиппей (support team)
User avatar
Joined: 30 Jul 2007
Posts: 123152
Lоcаtion: Киев (Kyiv, UA)
Age: 48
Name: Andrey
Tuco Pacífico wrote:
The Anti-Nowhere League - 10986 - The Perfect Crime

Кста.. не только я годы изданий путаю и увеличиваю :crazy:

_________________


Top
 Profile E-mail  
 
Display posts from previous:  Sort by  
Post new topic Reply to topic  [ 10 posts ] 

All times are UTC + 3 hours


Who is online

Users browsing this forum: No registered users and 1 guest


You cannot post new topics in this forum
You cannot reply to topics in this forum
You cannot edit your posts in this forum
You cannot delete your posts in this forum

Search for:
Яндекс.Метрика
cron
Powered by phpBB © 2000, 2002, 2005, 2007 phpBB Group