\m/ 80's metal \m/

Информационно-аналитический форум "80 см пыли" (In Search We Trust) "У нас никто никуда не спешит"
Me For You - http://me-4u.com
It is currently 13 Nov 2018

All times are UTC + 3 hours

Spoiler
Chat - temporary registration for foreign users (please leave your application here)





Forum rules


Настоятельная просьба не удалять из первого сообщения свои списки продаваемых или обмениваемых айтемов.



Post new topic Reply to topic  [ 54 posts ]  Go to page Previous  1, 2, 3  Next
Author Message
 
PostPosted: 26 May 2011 
Персональный статус
User avatar
Joined: 02 Jul 2009
Posts: 293
Name: Александр
Куплю в Lossless Hard Rock , Hair Metal и т.п.
Потому как скачать некоторые альбомы НЕВОЗМОЖНО ВООБЩЕ . А на e-bay покупать стану бомжом . Рок - болезнь - страшная зараза .
:help: :dash: :dash: :dash: :help:

"мой список"
Adrenalin Kick - Bad Reputation -1991
American Pearl - American Pearl - 2000
Babylon Bombs - Doin' You Nasty - 2006
Backbone Slide - Backbone Slide - 1994
BB Steal - Resurrection - 1996
Black Cat Moan - Black Cat Moan - 1991
Brass Kitten - Across America - 2001
Brass Kitten - E Z 'N Pretty - 1990
Clockwise - Naïve - 1998
Dirty Works - Dirty Works - 1992
D'Molls - D'Molls - 1988
D'Molls - Beyond D'Valley Of D'Molls - 1997
Electric Angels - Electric Angels -1990
Electric Love Hogs - Electric Love Hogs -1992
Essex -D7 - 1997
Falcon Scream - Falcon Scream - 1995
Fat Nancy - Pure American Muscle, Baby - 2005
Holy Soldier - Holy Soldier
Hot 'N' Nasty - Hot 'N' Nasty - 1990
Jesse Damon - The Hands That Rocks - 2002
Jesse Damon - Nothin' Else Matters - 2004
Jesse Damon - Rebel Within - 2006
JK Northrup - Wired In My Skin - 2007
Julliet - Psycho Boyfriend - 2004
Koritni -Lady Luck - 2007
Late Nite Romeo - Horrible Lust - 1999
Letter 7 - Follow The Light - 2008
Letter 7 - Salt Of The Earth - 2007
Loud 'N' Nasty - I Wanna Live My Life In The Fame - 2000
Loud 'N' Nasty - Too Much Ain't Enough - 2005
Metal Shop - Hole Patro - 2003
Nasty Idols - Heroes For Sale - 2002
New Tattoo - No Bones About It - 1991
Polution - Overheated - 2008
Roxx Gang - The Voodoo You Love - 1995
Roxx Gang - Love 'Em And Leave 'Em - 1997
Roxx Gang - Old, New, Borrowed & Blue - 1998
Roxx Gang - Bodacious Ta Tas - 2001
Schoolboy Crush - Electric Playground - 1989
Schoolboy Crush - Good Time , Bad Boys - 2005
Skin Deep - Painful Day - 1995
Slammin' Gladys - Slammin' Gladys - 1992
Slik Toxik - Smooth & Deadly - 1991
Slyboy - Brownbaggin'In Funkyland - 1991
Snow - Snow - 2007
Tattooed Love Boys - Bleeding Hearts and Needle Marks - 1989
Tattooed Love Boys - No Time For Nursery Rhymes - 1991
Thunderhead - Busted At The Border - 1990
Wildside - Wildside - 1995
XT - XT - 1992
XT - Taxfree - 1993
XT - Extended Empire - 1995


Last edited by Deris on 04 Jan 2012, edited 1 time in total.

Top
 Profile E-mail  
 
 
PostPosted: 27 May 2011 
Персональный статус
User avatar
Joined: 02 Jul 2009
Posts: 293
Name: Александр
К слову http://nearolderrocker.blogspot.com/201 ... metal.html - сплошные транскоды три альбома качнул и все обрубленные мпеги .


Top
 Profile E-mail  
 
 
PostPosted: 27 May 2011 
Хиппей (support team)
User avatar
Joined: 30 Jul 2007
Posts: 107929
Lоcаtion: Киев (Kyiv, UA)
Age: 45
Name: Andrey
Deris wrote:
Андрюх я чесно слово что то не понял как правильно сделать

Ну... вот у тебя в списке альбомы есть. По каждой группе создаем отдельный топик, внутри его должна быть инфа о искомых альбомах. Короче, всё ж в правилах указано :arrow: viewforum.php?f=205

Прочти еще разик и потыкай там в ссылочки и в пример правильного оформления запроса.
Удачи :dance:

Про тот блог спасибо... удаляю якобы лося, скачанного оттуда :fingal:

_________________


Top
 Profile E-mail  
 
 
PostPosted: 28 May 2011 
Хиппей (support team)
User avatar
Joined: 30 Jul 2007
Posts: 107929
Lоcаtion: Киев (Kyiv, UA)
Age: 45
Name: Andrey
Deris wrote:
сплошные транскоды три альбома качнул и все обрубленные мпеги

Мдя уж... :fingal:

Attachment:
specter.jpg
specter.jpg [ 404.35 KiB | Viewed 105 times ]

_________________


Top
 Profile E-mail  
 
 
PostPosted: 31 May 2011 
Персональный статус
User avatar
Joined: 02 Jul 2009
Posts: 293
Name: Александр
Вот попробовал запостить несколько запросов . Не буду я Андрюх по каждой группе делать , а то без толку загажу только Lossless (request) . :(


Top
 Profile E-mail  
 
 
PostPosted: 31 May 2011 
Хиппей (support team)
User avatar
Joined: 30 Jul 2007
Posts: 107929
Lоcаtion: Киев (Kyiv, UA)
Age: 45
Name: Andrey
Deris wrote:
а то без толку загажу только Lossless (request)

:shok: Да с фигли бы :fingal:
Гадят гади, а у тебя очень даже добротная музыка в заявках :dance:

Ну смотри сам, я бы запостил всё в запросы, кабы время было лишнее.

_________________


Top
 Profile E-mail  
 
 
PostPosted: 04 Jun 2011 
хард н хэвщик (support team)
User avatar
Joined: 02 Jun 2008
Posts: 16880
Lоcаtion: Н.Новгород
Age: 31
Name: Артем
Deris wrote:
Dirty Deeds - Danger Of Infection -1998

оформлять нет времени
Dirty Deeds - Danger Of Infection.ape
Dirty Deeds - Danger Of Infection.cue


Top
 Profile  
 
 
PostPosted: 04 Jun 2011 
хард н хэвщик (support team)
User avatar
Joined: 02 Jun 2008
Posts: 16880
Lоcаtion: Н.Новгород
Age: 31
Name: Артем
Deris wrote:
Heyday - Heyday - 1994

Heyday - Heyday.rar


Top
 Profile  
 
 
PostPosted: 04 Jun 2011 
хард н хэвщик (support team)
User avatar
Joined: 02 Jun 2008
Posts: 16880
Lоcаtion: Н.Новгород
Age: 31
Name: Артем
Deris wrote:
Skin Deep - On The Rampage - 1992

Skin Deep - On the Rampage.cue
Skin Deep - On the Rampage.ape


Top
 Profile  
 
 
PostPosted: 04 Jun 2011 
хард н хэвщик (support team)
User avatar
Joined: 02 Jun 2008
Posts: 16880
Lоcаtion: Н.Новгород
Age: 31
Name: Артем
Deris wrote:
Roxx Gang - Mojo Gurus - 1998
+
Deris wrote:
Roxx Gang - Drinkin' T.N.T. And Smokin' Dynamite - 2000
roxx gang mojo gurus.rar


Top
 Profile  
 
 
PostPosted: 04 Jun 2011 
хард н хэвщик (support team)
User avatar
Joined: 02 Jun 2008
Posts: 16880
Lоcаtion: Н.Новгород
Age: 31
Name: Артем
Deris wrote:
Thunderhead - Ugly Side - 1999

thunderhead 1999 ugly side.nrg


Top
 Profile  
 
 
PostPosted: 04 Jun 2011 
Хиппей (support team)
User avatar
Joined: 30 Jul 2007
Posts: 107929
Lоcаtion: Киев (Kyiv, UA)
Age: 45
Name: Andrey
Красота :true:
Артём, спасибо :thanx:

_________________


Top
 Profile E-mail  
 
 
PostPosted: 04 Jun 2011 
Хиппей (support team)
User avatar
Joined: 30 Jul 2007
Posts: 107929
Lоcаtion: Киев (Kyiv, UA)
Age: 45
Name: Andrey
Deris

Саня, отписывайся здесь, как скачаешь всё и проверишь на предмет косяков - будем вычеркивать из твоего списка найденное :dance:

_________________


Top
 Profile E-mail  
 
 
PostPosted: 04 Jun 2011 
Хиппей (support team)
User avatar
Joined: 30 Jul 2007
Posts: 107929
Lоcаtion: Киев (Kyiv, UA)
Age: 45
Name: Andrey
McKagan wrote:
Deris wrote:
Dirty Deeds - Danger Of Infection -1998

оформлять нет времени
Dirty Deeds - Danger Of Infection.ape
Dirty Deeds - Danger Of Infection.cue

mirror: MultiUp l Narod

cue
REM GENRE "Melodic Metal"
REM DATE 1998
REM DISCID 7F0D2A0B
REM COMMENT "ExactAudioCopy v0.95b4"
PERFORMER "Dirty Deeds"
TITLE "Danger Of Infection"
FILE "Dirty Deeds - Danger Of Infection.wav" WAVE
TRACK 01 AUDIO
TITLE "Nothing To Loose"
PERFORMER "Dirty Deeds"
FLAGS DCP
INDEX 01 00:00:00
TRACK 02 AUDIO
TITLE "Cry Out"
PERFORMER "Dirty Deeds"
FLAGS DCP
INDEX 01 03:25:10
TRACK 03 AUDIO
TITLE "Dividing Line"
PERFORMER "Dirty Deeds"
FLAGS DCP
INDEX 01 07:58:22
TRACK 04 AUDIO
TITLE "Too Scared To Run"
PERFORMER "Dirty Deeds"
FLAGS DCP
INDEX 01 14:44:55
TRACK 05 AUDIO
TITLE "Promised Land"
PERFORMER "Dirty Deeds"
FLAGS DCP
INDEX 01 19:01:30
TRACK 06 AUDIO
TITLE "In The Name"
PERFORMER "Dirty Deeds"
FLAGS DCP
INDEX 01 25:29:02
TRACK 07 AUDIO
TITLE "Call Of The Wild"
PERFORMER "Dirty Deeds"
FLAGS DCP
INDEX 01 29:33:65
TRACK 08 AUDIO
TITLE "I Am The One"
PERFORMER "Dirty Deeds"
FLAGS DCP
INDEX 01 35:38:45
TRACK 09 AUDIO
TITLE "I'm No Angel"
PERFORMER "Dirty Deeds"
FLAGS DCP
INDEX 01 40:23:72
TRACK 10 AUDIO
TITLE "Facing The Enemy"
PERFORMER "Dirty Deeds"
FLAGS DCP
INDEX 01 45:49:17
TRACK 11 AUDIO
TITLE "Ruled By The Gun"
PERFORMER "Dirty Deeds"
FLAGS DCP
INDEX 01 50:48:50

_________________


Top
 Profile E-mail  
 
 
PostPosted: 05 Jun 2011 
Персональный статус
User avatar
Joined: 02 Jul 2009
Posts: 293
Name: Александр
А какие косяки , если нет отчёта , так это не ходовая часть . Артём ОГРОМЕННАЯ БЛАГОДАРНОСТЬ ТЕБЕ !!!!!!!!!!!! :thanx: :thanx: :thanx: :thanx:


Top
 Profile E-mail  
 
 
PostPosted: 05 Jun 2011 
Хиппей (support team)
User avatar
Joined: 30 Jul 2007
Posts: 107929
Lоcаtion: Киев (Kyiv, UA)
Age: 45
Name: Andrey
Сань, вот тута http://www.grooves-inc.com/gypsy-rose-a ... 79181.html можно заказать альбом. С доставкой и ценой проблем не должно возникнуть, неделю назад в Киев пару диском заказывали :dance:
К сожалению, я пока этот рип (и тем более диск) ни у кого нинашол :fingal:
Deris wrote:
А какие косяки , если нет отчёта , так это не ходовая часть

Ну мало ли, при прослушивание уже узнаешь :vic:

_________________


Top
 Profile E-mail  
 
 
PostPosted: 05 Jun 2011 
Персональный статус
User avatar
Joined: 02 Jul 2009
Posts: 293
Name: Александр
Андрюха . Спасибо за ссыль http://www.grooves-inc.com/gypsy-rose-a ... 79181.html . Попробую .


Top
 Profile E-mail  
 
 
PostPosted: 06 Jun 2011 
Хиппей (support team)
User avatar
Joined: 30 Jul 2007
Posts: 107929
Lоcаtion: Киев (Kyiv, UA)
Age: 45
Name: Andrey
McKagan wrote:
Deris wrote:
Heyday - Heyday - 1994

Heyday - Heyday.rar

:thanx:
mirror: MultiUp l Narod

_________________


Top
 Profile E-mail  
 
 
PostPosted: 07 Jun 2011 
хард н хэвщик (support team)
User avatar
Joined: 02 Jun 2008
Posts: 16880
Lоcаtion: Н.Новгород
Age: 31
Name: Артем
посмотри еще здесь, может быть что-нибудь для себя найдешь
http://www.metalminos.com/foro/index.php?topic=22199.0


Top
 Profile  
 
 
PostPosted: 07 Jun 2011 
Хиппей (support team)
User avatar
Joined: 30 Jul 2007
Posts: 107929
Lоcаtion: Киев (Kyiv, UA)
Age: 45
Name: Andrey
McKagan wrote:
может быть что-нибудь для себя найдешь

Не-не, там сайт немного не того формате. Пусто. Был TSOL, да и то ссылка давно пропала и был сделан криво рип.

_________________


Top
 Profile E-mail  
 
 
PostPosted: 07 Jun 2011 
Хиппей (support team)
User avatar
Joined: 30 Jul 2007
Posts: 107929
Lоcаtion: Киев (Kyiv, UA)
Age: 45
Name: Andrey
McKagan wrote:
Deris wrote:
Skin Deep - On The Rampage - 1992

Skin Deep - On the Rampage.cue
Skin Deep - On the Rampage.ape

:thanx:
mirror: MultiUp l Narod

cue
REM GENRE "Hard Rock"
REM DISCID 880C230B
REM COMMENT "ExactAudioCopy v0.95b4"
PERFORMER "Skin Deep"
TITLE "On the Rampage"
FILE "Skin Deep - On the Rampage.wav" WAVE
TRACK 01 AUDIO
TITLE "Youth Gone Wild"
PERFORMER "Skin Deep"
INDEX 01 00:00:00
TRACK 02 AUDIO
TITLE "Get Ready"
PERFORMER "Skin Deep"
INDEX 01 03:53:32
TRACK 03 AUDIO
TITLE "Run to You"
PERFORMER "Skin Deep"
INDEX 01 08:30:40
TRACK 04 AUDIO
TITLE "You Are the One"
PERFORMER "Skin Deep"
INDEX 01 12:31:52
TRACK 05 AUDIO
TITLE "I'm Waiting"
PERFORMER "Skin Deep"
INDEX 01 17:37:67
TRACK 06 AUDIO
TITLE "Lonely Hearts"
PERFORMER "Skin Deep"
INDEX 01 23:19:42
TRACK 07 AUDIO
TITLE "Love Is a Matter of Luck"
PERFORMER "Skin Deep"
INDEX 01 27:51:10
TRACK 08 AUDIO
TITLE "Never Let Me Go"
PERFORMER "Skin Deep"
INDEX 01 32:13:40
TRACK 09 AUDIO
TITLE "What a Nightmare"
PERFORMER "Skin Deep"
INDEX 00 38:24:30
INDEX 01 38:25:45
TRACK 10 AUDIO
TITLE "Why"
PERFORMER "Skin Deep"
INDEX 01 42:14:60
TRACK 11 AUDIO
TITLE "Tonight"
PERFORMER "Skin Deep"
INDEX 01 47:03:47

_________________


Top
 Profile E-mail  
 
Display posts from previous:  Sort by  
Post new topic Reply to topic  [ 54 posts ]  Go to page Previous  1, 2, 3  Next

All times are UTC + 3 hours


Who is online

Users browsing this forum: No registered users and 2 guests


You cannot post new topics in this forum
You cannot reply to topics in this forum
You cannot edit your posts in this forum
You cannot delete your posts in this forum
You cannot post attachments in this forum

Search for:
Яндекс.Метрика
Powered by phpBB © 2000, 2002, 2005, 2007 phpBB Group