\m/ 80's metal \m/

Информационно-аналитический форум "80 см пыли" (In Search We Trust) "У нас никто никуда не спешит"
Me For You - http://me-4u.com
It is currently 16 Dec 2018

All times are UTC + 3 hours

Spoiler
Chat - temporary registration for foreign users (please leave your application here)







Post new topic Reply to topic  [ 12 posts ] 
Author Message
 
PostPosted: 16 Sep 2010 
ыыыы
User avatar
Joined: 17 May 2009
Posts: 952
Lоcаtion: Пушкино, МО
Age: 40
Name: Дмитрий
Image


Жанр: Folk
Происхождение исполнителя: США
Год издания: 1982
Год издания данного носителя: 1982
Страна-производитель носителя: Япония для США
Аудио кодек: FLAC
Тип рипа: image+.cue
Битрейт аудио: lossless
Продолжительность: 38:49
Рип: Собственный
Лейбл: NONESUCH/ELEKTRA
Каталоговый номер: 9 79034-2
Матрица: 979034-2 51112M (SANYO)

Треклист:
1. All the Gossips Left For Home 02:29
2. Variations On Themes of Two Russian Folk Songs 06:56
3. Expanses of My Homeland 02:56
4. Russian Intermezzo 02:49
5. Kalinka 03:18
6. Evenings Near Moscow 03:16
7. What's That Ringing? 02:28
8. Memory Waltz 03:11
9. Glory 01:47
10. Bright Moon 02:58
11. Down the Long Road 02:51
12. Gypsy Fantasy 03:50

"Куй"
REM GENRE Folk
REM DATE 1982
REM DISCID 8509180C
REM COMMENT "ExactAudioCopy v0.99pb5"
PERFORMER "The Odessa Balalaikas"
TITLE "The Art of the Balalaika [9 79034-2]"
FILE "The Odessa Balalaikas - The Art of the Balalaika [9 79034-2].flac" WAVE
TRACK 01 AUDIO
TITLE "All the Gossips Left for Home"
PERFORMER "The Odessa Balalaikas"
INDEX 01 00:00:00
TRACK 02 AUDIO
TITLE "Variations on Themes of Two Russian Folk Songs"
PERFORMER "The Odessa Balalaikas"
INDEX 00 02:26:07
INDEX 01 02:28:65
TRACK 03 AUDIO
TITLE "Expanses of My Homeland"
PERFORMER "The Odessa Balalaikas"
INDEX 00 09:20:30
INDEX 01 09:24:45
TRACK 04 AUDIO
TITLE "Russian Intermezzo"
PERFORMER "The Odessa Balalaikas"
INDEX 00 12:19:67
INDEX 01 12:20:20
TRACK 05 AUDIO
TITLE "Kalinka"
PERFORMER "The Odessa Balalaikas"
INDEX 00 15:04:45
INDEX 01 15:09:12
TRACK 06 AUDIO
TITLE "Evenings Near Moscow"
PERFORMER "The Odessa Balalaikas"
INDEX 00 18:24:10
INDEX 01 18:27:00
TRACK 07 AUDIO
TITLE "What's That Ringing?"
PERFORMER "The Odessa Balalaikas"
INDEX 00 21:41:60
INDEX 01 21:42:70
TRACK 08 AUDIO
TITLE "Memory Waltz"
PERFORMER "The Odessa Balalaikas"
INDEX 00 24:08:35
INDEX 01 24:11:20
TRACK 09 AUDIO
TITLE "Glory"
PERFORMER "The Odessa Balalaikas"
INDEX 00 27:17:32
INDEX 01 27:21:65
TRACK 10 AUDIO
TITLE "Bright Moon"
PERFORMER "The Odessa Balalaikas"
INDEX 00 29:06:17
INDEX 01 29:09:27
TRACK 11 AUDIO
TITLE "Down the Long Road"
PERFORMER "The Odessa Balalaikas"
INDEX 00 32:04:32
INDEX 01 32:07:07
TRACK 12 AUDIO
TITLE "Gypsy Fantasy"
PERFORMER "The Odessa Balalaikas"
INDEX 00 34:57:47
INDEX 01 34:58:27


"Лог"
Exact Audio Copy V0.99 prebeta 5 from 4. May 2009

Отчёт EAC об извлечении, выполненном 16. сентября 2010, 10:07

The Odessa Balalaikas / The Art of the Balalaika [9 79034-2]

Дисковод: Optiarc DVD RW AD-7200A Adapter: 1 ID: 0

Режим чтения : Достоверность
Использование точного потока : Да
Отключение кэша аудио : Да
Использование указателей C2 : Нет

Коррекция смещения при чтении : 48
Способность читать области Lead-in и Lead-out : Нет
Заполнение пропущенных сэмплов тишиной : Да
Удаление блоков с тишиной в начале и конце : Нет
При вычислениях CRC использовались нулевые сэмплы : Да
Интерфейс : Встроенный Win32-интерфейс для Win NT/2000

Выходной формат : Пользовательский кодировщик
Выбранный битрейт : 128 kBit/s
Качество : Высокий
Добавление ID3-тэга : Нет
Утилита сжатия : C:\Program Files\Exact Audio Copy\Flac\flac.exe
Дополнительные параметры : -8 -V -T "artist=%a" -T "title=%t" -T "album=%g" -T "date=%y" -T "tracknumber=%n" -T "genre=%m" -T "comment=EAC


TOC извлечённого CD

Трек | Старт | Длительность | Начальный сектор | Конечный сектор
---------------------------------------------------------------------
1 | 0:00.00 | 2:28.65 | 0 | 11164
2 | 2:28.65 | 6:55.55 | 11165 | 42344
3 | 9:24.45 | 2:55.50 | 42345 | 55519
4 | 12:20.20 | 2:48.67 | 55520 | 68186
5 | 15:09.12 | 3:17.63 | 68187 | 83024
6 | 18:27.00 | 3:15.70 | 83025 | 97719
7 | 21:42.70 | 2:28.25 | 97720 | 108844
8 | 24:11.20 | 3:10.45 | 108845 | 123139
9 | 27:21.65 | 1:47.37 | 123140 | 131201
10 | 29:09.27 | 2:57.55 | 131202 | 144531
11 | 32:07.07 | 2:51.20 | 144532 | 157376
12 | 34:58.27 | 3:50.15 | 157377 | 174641


Характеристики диапазона извлечения и сообщения об ошибках

Выбранный диапазон

Имя файла Y:\Музыка\The Odessa Balalaikas\1982 The Art of the Balalaika\The Odessa Balalaikas - The Art of the Balalaika [9 79034-2].wav

Пиковый уровень 100.0 %
Качество диапазона 100.0 %
CRC копии D05F5C5C
Копирование... OK

Ошибок не произошло


AccurateRip: сводка

Трек 1 нет в базе данных
Трек 2 нет в базе данных
Трек 3 нет в базе данных
Трек 4 нет в базе данных
Трек 5 нет в базе данных
Трек 6 нет в базе данных
Трек 7 нет в базе данных
Трек 8 нет в базе данных
Трек 9 нет в базе данных
Трек 10 нет в базе данных
Трек 11 нет в базе данных
Трек 12 нет в базе данных

Ни одного трека нет в базе AccurateRip

Конец отчёта


Состав:
Peter Rothe: Prima balalaika, alto domra, bass domra
Jonathan Rothe: Prima domra, bass domra, gusli
Ksenia Sudarikova: Prima balalaika, alto balalaika
Linda O’Brien: Alto balalaika, bayan, vocals
David Lieberman: Contra-bass balalaika, guitar

9 79034-2

_________________
Витасу до Даймонда как Алсу до Руссоса | При переразмещении - спрашивать разрешение!!


Last edited by iezuit on 18 Sep 2010, edited 1 time in total.

Top
 Profile  
 
 
PostPosted: 18 Sep 2010 
Хиппей (support team)
User avatar
Joined: 30 Jul 2007
Posts: 108945
Lоcаtion: Киев (Kyiv, UA)
Age: 45
Name: Andrey
:true:

_________________


Top
 Profile E-mail  
 
 
PostPosted: 18 Sep 2010 
дядя Миша
User avatar
Joined: 17 Oct 2008
Posts: 3078
Lоcаtion: USSR
Age: 56
Name: Khy
Image :true:


Top
 Profile  
 
 
PostPosted: 18 Sep 2010 
ыыыы
User avatar
Joined: 17 May 2009
Posts: 952
Lоcаtion: Пушкино, МО
Age: 40
Name: Дмитрий
VARVAAR
предложение застрелиться? :shok:

_________________
Витасу до Даймонда как Алсу до Руссоса | При переразмещении - спрашивать разрешение!!


Top
 Profile  
 
 
PostPosted: 19 Sep 2010 
Хиппей (support team)
User avatar
Joined: 30 Jul 2007
Posts: 108945
Lоcаtion: Киев (Kyiv, UA)
Age: 45
Name: Andrey
Ммм, сдается мне, Миша явно намекнул "Магнумом" на национальные признаки этих американских балалаешников :rabo: :garmo:

_________________


Top
 Profile E-mail  
 
 
PostPosted: 19 Sep 2010 
Позитивный Южанин
User avatar
Joined: 07 May 2010
Posts: 1620
Lоcаtion: КРЫМ
Age: 43
Name: Алексей
:crazy: Дальние родственники KISS и TWISTED SISTER :true:

_________________
WATER'EM ALL!


Top
 Profile E-mail  
 
 
PostPosted: 19 Sep 2010 
Доктор энтомологии
User avatar
Joined: 22 Jan 2009
Posts: 9488
Lоcаtion: Даугавпилс
Age: 43
Name: Алексей
:crazy:


Top
 Profile  
 
 
PostPosted: 19 Sep 2010 
ыыыы
User avatar
Joined: 17 May 2009
Posts: 952
Lоcаtion: Пушкино, МО
Age: 40
Name: Дмитрий
ничего не понял :dash:

_________________
Витасу до Даймонда как Алсу до Руссоса | При переразмещении - спрашивать разрешение!!


Top
 Profile  
 
 
PostPosted: 19 Sep 2010 
Доктор энтомологии
User avatar
Joined: 22 Jan 2009
Posts: 9488
Lоcаtion: Даугавпилс
Age: 43
Name: Алексей
iezuit wrote:
ничего не понял :dash:

:oops:


Top
 Profile  
 
 
PostPosted: 19 Sep 2010 
Доктор энтомологии
User avatar
Joined: 22 Jan 2009
Posts: 9488
Lоcаtion: Даугавпилс
Age: 43
Name: Алексей
Entomologist wrote:
iezuit wrote:
ничего не понял :dash:

:oops:

Image


Top
 Profile  
 
 
PostPosted: 19 Sep 2010 
ыыыы
User avatar
Joined: 17 May 2009
Posts: 952
Lоcаtion: Пушкино, МО
Age: 40
Name: Дмитрий
так бы сразу и сказал! :true:
Там да, полно этой самой демократичной нации))

_________________
Витасу до Даймонда как Алсу до Руссоса | При переразмещении - спрашивать разрешение!!


Top
 Profile  
 
 
PostPosted: 19 Sep 2010 
Позитивный Южанин
User avatar
Joined: 07 May 2010
Posts: 1620
Lоcаtion: КРЫМ
Age: 43
Name: Алексей
перфоманс :crazy:

_________________
WATER'EM ALL!


Top
 Profile E-mail  
 
Display posts from previous:  Sort by  
Post new topic Reply to topic  [ 12 posts ] 

All times are UTC + 3 hours


Who is online

Users browsing this forum: No registered users and 3 guests


You cannot post new topics in this forum
You cannot reply to topics in this forum
You cannot edit your posts in this forum
You cannot delete your posts in this forum
You cannot post attachments in this forum

Search for:
Яндекс.Метрика
Powered by phpBB © 2000, 2002, 2005, 2007 phpBB Group