\m/ 80's metal \m/

Информационно-аналитический форум "80 см пыли" (In Search We Trust) "У нас никто никуда не спешит"
Me For You - http://me-4u.com
It is currently 19 Dec 2018

All times are UTC + 3 hours

Spoiler
Chat - temporary registration for foreign users (please leave your application here)







Post new topic Reply to topic  [ 57 posts ]  Go to page Previous  1, 2, 3
Author Message
 
PostPosted: 17 Jun 2013 
Хиппей (support team)
User avatar
Joined: 30 Jul 2007
Posts: 109003
Lоcаtion: Киев (Kyiv, UA)
Age: 45
Name: Andrey
Grapher wrote:
The Williams Brothers - Harmony Hotel (1993 Warner Bros.) FLAC


Image
Image

mirror: F-Bit l Narod l eDisk

А этот альбом тоже неплох, но слишком уж меланхоличный какой-то. Почти тоскливый. Грустный, в общем. Ну и простецкий намного :pardon:

4/10

log
Exact Audio Copy V1.0 beta 3 from 29. August 2011

EAC extraction logfile from 4. April 2013, 17:36

The Williams Brothers / Harmony Hotel

Used drive : SlimtypeDVD A DS8A5SH Adapter: 0 ID: 1

Read mode : Secure
Utilize accurate stream : Yes
Defeat audio cache : Yes
Make use of C2 pointers : No

Read offset correction : 6
Overread into Lead-In and Lead-Out : No
Fill up missing offset samples with silence : Yes
Delete leading and trailing silent blocks : No
Null samples used in CRC calculations : Yes
Used interface : Native Win32 interface for Win NT & 2000
Gap handling : Appended to previous track

Used output format : User Defined Encoder
Selected bitrate : 1024 kBit/s
Quality : High
Add ID3 tag : No
Command line compressor : C:\Program Files (x86)\Exact Audio Copy\Flac\flac.exe
Additional command line options : -8 -V -T "ARTIST=%artist%" -T "TITLE=%title%" -T "ALBUM=%albumtitle%" -T "DATE=%year%" -T "TRACKNUMBER=%tracknr%" -T "GENRE=%genre%" -T "PERFORMER=%albuminterpret%" -T "COMPOSER=%composer%" %haslyrics%--tag-from-file=LYRICS="%lyricsfile%"%haslyrics% -T "ALBUMARTIST=%albumartist%" -T "DISCNUMBER=%cdnumber%" -T "TOTALDISCS=%totalcds%" -T "TOTALTRACKS=%numtracks%" -T "COMMENT=%comment%" %source% -o %dest%


TOC of the extracted CD

Track | Start | Length | Start sector | End sector
---------------------------------------------------------
1 | 0:00.32 | 3:45.05 | 32 | 16911
2 | 3:45.37 | 4:35.60 | 16912 | 37596
3 | 8:21.22 | 4:27.20 | 37597 | 57641
4 | 12:48.42 | 4:24.35 | 57642 | 77476
5 | 17:13.02 | 4:42.43 | 77477 | 98669
6 | 21:55.45 | 4:46.00 | 98670 | 120119
7 | 26:41.45 | 3:37.27 | 120120 | 136421
8 | 30:18.72 | 3:15.05 | 136422 | 151051
9 | 33:34.02 | 3:26.40 | 151052 | 166541
10 | 37:00.42 | 3:55.23 | 166542 | 184189


Track 1

Filename C:\Users\revfit\Music\will\01 - Friction.wav

Pre-gap length 0:00:02.42

Peak level 97.7 %
Extraction speed 1.0 X
Track quality 99.9 %
Test CRC 993B2F6C
Copy CRC 993B2F6C
Accurately ripped (confidence 4) [E460AD74] (AR v1)
Copy OK

Track 2

Filename C:\Users\revfit\Music\will\02 - Don't Look Now.wav

Pre-gap length 0:00:01.66

Peak level 98.2 %
Extraction speed 1.3 X
Track quality 100.0 %
Test CRC BB548B0E
Copy CRC BB548B0E
Accurately ripped (confidence 4) [D68AF6EF] (AR v1)
Copy OK

Track 3

Filename C:\Users\revfit\Music\will\03 - Man of the House.wav

Peak level 97.7 %
Extraction speed 1.3 X
Track quality 99.9 %
Test CRC 10D15639
Copy CRC 10D15639
Accurately ripped (confidence 4) [FCBA5C0A] (AR v1)
Copy OK

Track 4

Filename C:\Users\revfit\Music\will\04 - Silver.wav

Pre-gap length 0:00:00.50

Peak level 97.7 %
Extraction speed 1.6 X
Track quality 100.0 %
Test CRC 5D23BFC3
Copy CRC 5D23BFC3
Accurately ripped (confidence 4) [461B1F14] (AR v1)
Copy OK

Track 5

Filename C:\Users\revfit\Music\will\05 - Harmony Hotel.wav

Peak level 97.7 %
Extraction speed 1.7 X
Track quality 100.0 %
Test CRC 39FD1D35
Copy CRC 39FD1D35
Accurately ripped (confidence 4) [20337544] (AR v1)
Copy OK

Track 6

Filename C:\Users\revfit\Music\will\06 - Where Would I Be.wav

Pre-gap length 0:00:01.34

Peak level 97.7 %
Extraction speed 1.8 X
Track quality 100.0 %
Test CRC 6CB4E1C8
Copy CRC 6CB4E1C8
Accurately ripped (confidence 4) [66FCD072] (AR v1)
Copy OK

Track 7

Filename C:\Users\revfit\Music\will\07 - Love is the Language.wav

Pre-gap length 0:00:00.48

Peak level 97.7 %
Extraction speed 1.8 X
Track quality 100.0 %
Test CRC 2BCC70BE
Copy CRC 2BCC70BE
Accurately ripped (confidence 3) [90734D83] (AR v1)
Copy OK

Track 8

Filename C:\Users\revfit\Music\will\08 - Broken Things.wav

Pre-gap length 0:00:02.33

Peak level 97.7 %
Extraction speed 1.8 X
Track quality 100.0 %
Test CRC F6A21637
Copy CRC F6A21637
Accurately ripped (confidence 4) [5744C3CC] (AR v1)
Copy OK

Track 9

Filename C:\Users\revfit\Music\will\09 - Long Ago Last Night.wav

Peak level 97.7 %
Extraction speed 1.9 X
Track quality 100.0 %
Test CRC 8363472E
Copy CRC 8363472E
Accurately ripped (confidence 4) [1E458834] (AR v1)
Copy OK

Track 10

Filename C:\Users\revfit\Music\will\10 - Wonderful Blues.wav

Peak level 97.7 %
Extraction speed 2.0 X
Track quality 100.0 %
Test CRC DC4AE295
Copy CRC DC4AE295
Accurately ripped (confidence 4) [9E576EDB] (AR v1)
Copy OK


All tracks accurately ripped

No errors occurred

End of status report

==== Log checksum C227144191658854E9EA14264D19C732BA236C154017BCC98CC84CCA17082308 ====


cue
REM GENRE Folk
REM DATE 1993
REM DISCID 5E09970A
REM COMMENT "ExactAudioCopy v1.0b3"
CATALOG 0075994542126
PERFORMER "The Williams Brothers"
TITLE "Harmony Hotel"
FILE "01 - Friction.wav" WAVE
TRACK 01 AUDIO
TITLE "Friction"
PERFORMER "The Williams Brothers"
PREGAP 00:00:32
INDEX 01 00:00:00
TRACK 02 AUDIO
TITLE "Don't Look Now"
PERFORMER "The Williams Brothers"
INDEX 00 03:43:30
FILE "02 - Don't Look Now.wav" WAVE
INDEX 01 00:00:00
FILE "03 - Man of the House.wav" WAVE
TRACK 03 AUDIO
TITLE "Man of the House"
PERFORMER "The Williams Brothers"
INDEX 01 00:00:00
TRACK 04 AUDIO
TITLE "Silver"
PERFORMER "The Williams Brothers"
INDEX 00 04:26:57
FILE "04 - Silver.wav" WAVE
INDEX 01 00:00:00
FILE "05 - Harmony Hotel.wav" WAVE
TRACK 05 AUDIO
TITLE "Harmony Hotel"
PERFORMER "The Williams Brothers"
INDEX 01 00:00:00
TRACK 06 AUDIO
TITLE "Where Would I Be"
PERFORMER "The Williams Brothers"
INDEX 00 04:41:17
FILE "06 - Where Would I Be.wav" WAVE
INDEX 01 00:00:00
TRACK 07 AUDIO
TITLE "Love is the Language"
PERFORMER "The Williams Brothers"
INDEX 00 04:45:39
FILE "07 - Love is the Language.wav" WAVE
INDEX 01 00:00:00
TRACK 08 AUDIO
TITLE "Broken Things"
PERFORMER "The Williams Brothers"
INDEX 00 03:35:02
FILE "08 - Broken Things.wav" WAVE
INDEX 01 00:00:00
FILE "09 - Long Ago Last Night.wav" WAVE
TRACK 09 AUDIO
TITLE "Long Ago Last Night"
PERFORMER "The Williams Brothers"
INDEX 01 00:00:00
FILE "10 - Wonderful Blues.wav" WAVE
TRACK 10 AUDIO
TITLE "Wonderful Blues"
PERFORMER "The Williams Brothers"
INDEX 01 00:00:00

_________________


Top
 Profile E-mail  
 
 
PostPosted: 21 Jun 2013 
Персональный статус
User avatar
Joined: 03 Dec 2012
Posts: 261
Lоcаtion: Владимир
Age: 59
Name: Александр
Андрэ, послушай - Jesus Christ - Same (1994) Canada
Думаю понравится эта редкая пластиночка. (МР3-256)


Top
 Profile E-mail  
 
 
PostPosted: 21 Jun 2013 
Хиппей (support team)
User avatar
Joined: 30 Jul 2007
Posts: 109003
Lоcаtion: Киев (Kyiv, UA)
Age: 45
Name: Andrey
Ой, Саш, не хочу :oops:

_________________


Top
 Profile E-mail  
 
 
PostPosted: 21 Jun 2013 
Персональный статус
User avatar
Joined: 03 Dec 2012
Posts: 261
Lоcаtion: Владимир
Age: 59
Name: Александр
Ой, Саш, не хочу :oops:

Этож металлл. :meloman:


Top
 Profile E-mail  
 
 
PostPosted: 21 Jun 2013 
Хиппей (support team)
User avatar
Joined: 30 Jul 2007
Posts: 109003
Lоcаtion: Киев (Kyiv, UA)
Age: 45
Name: Andrey
А я не люблю митал :pardon:

_________________


Top
 Profile E-mail  
 
 
PostPosted: 22 Jun 2013 
Хиппей (support team)
User avatar
Joined: 30 Jul 2007
Posts: 109003
Lоcаtion: Киев (Kyiv, UA)
Age: 45
Name: Andrey
Етить, скачал и просушал, сблевнул :esel: :esel: :esel:
Это Groove Metal фуфловый :fingal:

phpBB [youtube]


Спасибо :thanx:

Пусть еще несколько ссылок здесь поторчал, пока альбом действительно типа рарный.

mirror: F-Bit l Narod

_________________


Top
 Profile E-mail  
 
 
PostPosted: 23 Jun 2013 
Хиппей (support team)
User avatar
Joined: 30 Jul 2007
Posts: 109003
Lоcаtion: Киев (Kyiv, UA)
Age: 45
Name: Andrey
The Williams Brothers - 2002 - Andy & David (comp.) [192]

mirror: F-Bit l Narod

Начал слушать... И вырубил. Компиляшка она и есть сборничек. Не мой форматик, етить :pardon:

_________________


Top
 Profile E-mail  
 
 
PostPosted: 24 Jul 2013 
Персональный статус
User avatar
Joined: 03 Dec 2012
Posts: 261
Lоcаtion: Владимир
Age: 59
Name: Александр
Meet Andy & David Williams - Meet Andy & David Williams (1973)
Andy And David Williams - One More Time (1973)


>>>Тык сюды - получишь МР3 320

Два альбома в одном архиве!


Top
 Profile E-mail  
 
 
PostPosted: 24 Jul 2013 
Хиппей (support team)
User avatar
Joined: 30 Jul 2007
Posts: 109003
Lоcаtion: Киев (Kyiv, UA)
Age: 45
Name: Andrey
:thanx: + :thanx:

_________________


Top
 Profile E-mail  
 
 
PostPosted: 24 Jul 2013 
Персональный статус
User avatar
Joined: 03 Dec 2012
Posts: 261
Lоcаtion: Владимир
Age: 59
Name: Александр
Андрэ, за што взял - за то отдал.
Но походу это апконверт из 128 кб. :cry:


Top
 Profile E-mail  
 
 
PostPosted: 24 Jul 2013 
Персональный статус
User avatar
Joined: 03 Dec 2012
Posts: 261
Lоcаtion: Владимир
Age: 59
Name: Александр
Image

Image


Top
 Profile E-mail  
 
 
PostPosted: 24 Jul 2013 
Хиппей (support team)
User avatar
Joined: 30 Jul 2007
Posts: 109003
Lоcаtion: Киев (Kyiv, UA)
Age: 45
Name: Andrey
А мне пофик :dance:
Главное музяка чтоб более-менее интересная была.

_________________


Top
 Profile E-mail  
 
 
PostPosted: 24 Jul 2013 
Персональный статус
User avatar
Joined: 03 Dec 2012
Posts: 261
Lоcаtion: Владимир
Age: 59
Name: Александр
А мне пофик :dance:
Главное музяка чтоб более-менее интересная была.

Ну тогда все норм! :dance:


Top
 Profile E-mail  
 
 
PostPosted: 24 Jul 2013 
Хиппей (support team)
User avatar
Joined: 30 Jul 2007
Posts: 109003
Lоcаtion: Киев (Kyiv, UA)
Age: 45
Name: Andrey
Ага, по скринам это 160 примерно. Ну чехи любят у себя на варезных сайтах аплоадить всё только в 320 :crazy: :esel:

_________________


Top
 Profile E-mail  
 
 
PostPosted: 18 Aug 2013 
Хиппей (support team)
User avatar
Joined: 30 Jul 2007
Posts: 109003
Lоcаtion: Киев (Kyiv, UA)
Age: 45
Name: Andrey
А мне пофик :dance:
Главное музяка чтоб более-менее интересная была.

Ну тогда все норм! :dance:

Кстати, и первые альбомы весьма понравились. Это поп-рок но не детский, несмотря на возраст участников.
В общем, наши группы такое в конце 70-х играли. "Поющие гитары", "Весёлые ребята" и прочие "Песняры".
Поп-рок такой классический без особых изысков, зато душевно исполнено :meloman:

Дебютник больше понравился. Второй альбом немного меланхоличным случился :cry:

Andy & David Williams - 1973 - Meet Andy & David Williams [320]

ImageImage

mirror: F-Bit l Narod l eDisk

phpBB [youtube]


Andy & David Williams - 1973 - One More Time [320]

ImageImage

F-Bit l Narod l eDisk

_________________


Top
 Profile E-mail  
 
 
PostPosted: 18 Aug 2013 
Персональный статус
User avatar
Joined: 03 Dec 2012
Posts: 261
Lоcаtion: Владимир
Age: 59
Name: Александр
Андрэ, куда тётку дел с мороженым? :crazy: В рабство продал?
Сколько интересно за такую дають. :nunu:


Top
 Profile E-mail  
 
 
PostPosted: 19 Aug 2013 
Хиппей (support team)
User avatar
Joined: 30 Jul 2007
Posts: 109003
Lоcаtion: Киев (Kyiv, UA)
Age: 45
Name: Andrey
Дык, чота её вчерась форум удалил :fingal: Пришлось вернуться к старенькому аполитическому аватарчику :pardon:

_________________


Top
 Profile E-mail  
 
Display posts from previous:  Sort by  
Post new topic Reply to topic  [ 57 posts ]  Go to page Previous  1, 2, 3

All times are UTC + 3 hours


Who is online

Users browsing this forum: No registered users and 2 guests


You cannot post new topics in this forum
You cannot reply to topics in this forum
You cannot edit your posts in this forum
You cannot delete your posts in this forum
You cannot post attachments in this forum

Search for:
Яндекс.Метрика
Powered by phpBB © 2000, 2002, 2005, 2007 phpBB Group