\m/ 80's metal \m/

Информационно-аналитический форум "80 см пыли" (In Search We Trust) "У нас никто никуда не спешит"
Me For You - http://me-4u.com
It is currently 14 Dec 2018

All times are UTC + 3 hours

Spoiler
Chat - temporary registration for foreign users (please leave your application here)







Post new topic Reply to topic  [ 22 posts ]  Go to page 1, 2  Next
Author Message
 
PostPosted: 15 Mar 2014 
Old Time Rock`n`Roll
User avatar
Joined: 23 Jun 2008
Posts: 3371
Lоcаtion: г.Ульяновск
Age: 40
Name: Константин
The Tractors - Trade Union (2009)

Image

Tracklist:

01. Up Jumped The Boogie (03:58)
02. Pick Me Up On Your Way Down (04:01)
03. Rhythm Bone lyrics (03:00)
04. Good Old Days (3:05)
05. There's Gonna Be Some Changes Made (03:31)
06. My Blue Heart (3:30)
07. What Makes Love Go Bad (3:28)
08. That's Where It Hurts (3:21)
09. Midnight Train (5:58)
10. It's Only Love (3:02)

Ищется


Top
 Profile  
 
 
PostPosted: 15 Mar 2014 
Partisanen - nicht kapitulieren!!
User avatar
Joined: 25 Dec 2011
Posts: 6762
Lоcаtion: партизанские леса
Age: 46
Name: Владимир
нашёл лося на вате, токмо там с раздающими бида... поставил скачать, посмотрим, что с того получится

_________________
One more beer and Heavy Metal and I'm just fine!
старовер, куле... слово "блин" - до сих пор через Ъ говорю


Top
 Profile E-mail  
 
 
PostPosted: 15 Mar 2014 
Old Time Rock`n`Roll
User avatar
Joined: 23 Jun 2008
Posts: 3371
Lоcаtion: г.Ульяновск
Age: 40
Name: Константин
Ок, подождем. Меия бы в принципе и мп-3 устроило, просто этого альбома и в таком виде нет.


Top
 Profile  
 
 
PostPosted: 15 Mar 2014 
Partisanen - nicht kapitulieren!!
User avatar
Joined: 25 Dec 2011
Posts: 6762
Lоcаtion: партизанские леса
Age: 46
Name: Владимир
а там этого альбома кроме лося ничего и нету... другие альбомы не надо?

_________________
One more beer and Heavy Metal and I'm just fine!
старовер, куле... слово "блин" - до сих пор через Ъ говорю


Last edited by 32warlord1 on 15 Mar 2014, edited 2 times in total.

Top
 Profile E-mail  
 
 
PostPosted: 15 Mar 2014 
Old Time Rock`n`Roll
User avatar
Joined: 23 Jun 2008
Posts: 3371
Lоcаtion: г.Ульяновск
Age: 40
Name: Константин
Нет, спасибо, первые 3 есть в мп-3.


Top
 Profile  
 
 
PostPosted: 15 Mar 2014 
Partisanen - nicht kapitulieren!!
User avatar
Joined: 25 Dec 2011
Posts: 6762
Lоcаtion: партизанские леса
Age: 46
Name: Владимир
ну или с дизера можно выдернуть, если устроит...

_________________
One more beer and Heavy Metal and I'm just fine!
старовер, куле... слово "блин" - до сих пор через Ъ говорю


Top
 Profile E-mail  
 
 
PostPosted: 15 Mar 2014 
Old Time Rock`n`Roll
User avatar
Joined: 23 Jun 2008
Posts: 3371
Lоcаtion: г.Ульяновск
Age: 40
Name: Константин
Устроит :thanx:


Top
 Profile  
 
 
PostPosted: 16 Mar 2014 
Partisanen - nicht kapitulieren!!
User avatar
Joined: 25 Dec 2011
Posts: 6762
Lоcаtion: партизанские леса
Age: 46
Name: Владимир
The Tractors 2009 - Trade Union (Deezer stream rip)
Image

Artist : The Tractors
Album : Trade Union
Genre : Country Rock
Site : http://www.thetractors.com/
Country : USA
Year : 2009
Label : Koch Records
Tracks : 10
Playtime : 00:38:40
Size : 54,23 MB
Codec : MPEG 1 Layer III/Lame 3.98/192 kbps

Tracklist :
01. Up Jumped The Boogie (03:31)
02. Pick Me Up On Your Way Down (04:02)
03. Rhythm Bone (05:16)
04. Good Old Days (03:04)
05. There's Gonna Be Some Changes Made (03:29)
06. My Blue Heart (03:28)
07. What Makes Love Go Bad (03:26)
08. That's Where It Hurts (03:21)
09. Midnight Train (05:56)
10. It's Only Love (03:01)

mail.ru

_________________
One more beer and Heavy Metal and I'm just fine!
старовер, куле... слово "блин" - до сих пор через Ъ говорю


Top
 Profile E-mail  
 
 
PostPosted: 16 Mar 2014 
Old Time Rock`n`Roll
User avatar
Joined: 23 Jun 2008
Posts: 3371
Lоcаtion: г.Ульяновск
Age: 40
Name: Константин
Владимир, спасибо! :true:


Top
 Profile  
 
 
PostPosted: 16 Mar 2014 
Хиппей (support team)
User avatar
Joined: 30 Jul 2007
Posts: 108901
Lоcаtion: Киев (Kyiv, UA)
Age: 45
Name: Andrey
:thanx:

mirror: Narod l M-Cloud

_________________


Top
 Profile E-mail  
 
 
PostPosted: 16 Mar 2014 
Partisanen - nicht kapitulieren!!
User avatar
Joined: 25 Dec 2011
Posts: 6762
Lоcаtion: партизанские леса
Age: 46
Name: Владимир
первые 3 есть в мп-3.

их там 5 в общей сложности -
2009 - Trade Union
2001 - Fast Girl
1998 - Farmers in a Changing World
1995 - Have Yourself A Tractors Christmas
1994 - The Tractors

и ещё, я так понял, сборник -
2003 - All American Country

_________________
One more beer and Heavy Metal and I'm just fine!
старовер, куле... слово "блин" - до сих пор через Ъ говорю


Top
 Profile E-mail  
 
 
PostPosted: 17 Mar 2014 
Old Time Rock`n`Roll
User avatar
Joined: 23 Jun 2008
Posts: 3371
Lоcаtion: г.Ульяновск
Age: 40
Name: Константин
На паре песен есть щелчки и клацанье мышки.
Володя, можешь поставить на закачку лося? Хороший альбом, классический, из начале 90-х, когда кантри было на подъеме и по-настоящему крутым.

32warlord1 wrote:
1995 - Have Yourself A Tractors Christmas


Это альбом рождественских песен, я не любитель такого.
У группы 4 студийных релиза.


Top
 Profile  
 
 
PostPosted: 17 Mar 2014 
Хиппей (support team)
User avatar
Joined: 30 Jul 2007
Posts: 108901
Lоcаtion: Киев (Kyiv, UA)
Age: 45
Name: Andrey
oldrocker wrote:
На паре песен есть щелчки и клацанье мышки.

Блин... Халтура ж :fingal:

Володь, ты не переслушиваешь то, что сграббливаешь? :(

_________________


Top
 Profile E-mail  
 
 
PostPosted: 19 Mar 2014 
Partisanen - nicht kapitulieren!!
User avatar
Joined: 25 Dec 2011
Posts: 6762
Lоcаtion: партизанские леса
Age: 46
Name: Владимир
oldrocker wrote:
На паре песен есть щелчки и клацанье мышки.

Блин... Халтура ж :fingal:

Володь, ты не переслушиваешь то, что сграббливаешь? :(

не, это не проверял... простите засранца :oops:
лося поставил скачивать, посмотрим что с этого получится

_________________
One more beer and Heavy Metal and I'm just fine!
старовер, куле... слово "блин" - до сих пор через Ъ говорю


Top
 Profile E-mail  
 
 
PostPosted: 19 Mar 2014 
Partisanen - nicht kapitulieren!!
User avatar
Joined: 25 Dec 2011
Posts: 6762
Lоcаtion: партизанские леса
Age: 46
Name: Владимир
The Tractors 2009 - Trade Union [FLAC]
Image

Artist : The Tractors
Album : Trade Union
Genre : Country Rock
Site : http://www.thetractors.com/
Country : USA
Year : 2009
Label : Koch Records
Tracks : 10
Playtime : 00:38:40
Size : 278.8 MB
Codec : FLAC/Lossless

Tracklist :
01. Up Jumped The Boogie (03:31)
02. Pick Me Up On Your Way Down (04:02)
03. Rhythm Bone (05:16)
04. Good Old Days (03:04)
05. There's Gonna Be Some Changes Made (03:29)
06. My Blue Heart (03:28)
07. What Makes Love Go Bad (03:26)
08. That's Where It Hurts (03:21)
09. Midnight Train (05:56)
10. It's Only Love (03:01)

EAC log
Code:
Exact Audio Copy V1.0 beta 3 from 29. August 2011

EAC extraction logfile from 20. December 2011, 13:02

The Tractors / Trade Union

Used drive  : TSSTcorpCDDVDW TS-L633L   Adapter: 3  ID: 0

Read mode               : Secure
Utilize accurate stream : Yes
Defeat audio cache      : Yes
Make use of C2 pointers : No

Read offset correction                      : 6
Overread into Lead-In and Lead-Out          : No
Fill up missing offset samples with silence : Yes
Delete leading and trailing silent blocks   : No
Null samples used in CRC calculations       : Yes
Used interface                              : Native Win32 interface for Win NT & 2000
Gap handling                                : Appended to previous track

Used output format              : User Defined Encoder
Selected bitrate                : 768 kBit/s
Quality                         : High
Add ID3 tag                     : No
Command line compressor         : C:\Program Files (x86)\Exact Audio Copy\FLAC\FLAC.EXE
Additional command line options : -6 -V -T "ARTIST=%artist%" -T "TITLE=%title%" -T "ALBUM=%albumtitle%" -T "DATE=%year%" -T "TRACKNUMBER=%tracknr%" -T "GENRE=%genre%" -T "COMMENT=%comment%" -T "BAND=%albuminterpret%" -T "ALBUMARTIST=%albuminterpret%" -T "COMPOSER=%composer%" %haslyrics%--tag-from-file=LYRICS="%lyricsfile%"%haslyrics% -T "DISCNUMBER=%cdnumber%" -T "TOTALDISCS=%totalcds%" -T "TOTALTRACKS=%numtracks%" %hascover%--picture="%coverfile%"%hascover% %source% -o %dest%


TOC of the extracted CD

     Track |   Start  |  Length  | Start sector | End sector
    ---------------------------------------------------------
        1  |  0:00.00 |  3:34.02 |         0    |    16051   
        2  |  3:34.02 |  4:04.05 |     16052    |    34356   
        3  |  7:38.07 |  5:19.34 |     34357    |    58315   
        4  | 12:57.41 |  3:05.59 |     58316    |    72249   
        5  | 16:03.25 |  3:30.23 |     72250    |    88022   
        6  | 19:33.48 |  3:31.74 |     88023    |   103921   
        7  | 23:05.47 |  3:28.62 |    103922    |   119583   
        8  | 26:34.34 |  3:21.73 |    119584    |   134731   
        9  | 29:56.32 |  5:58.16 |    134732    |   161597   
       10  | 35:54.48 |  3:02.01 |    161598    |   175248   


Track  1

     Filename C:\EAC Rips\The Tractors - Trade Union (2009) [FLAC]\01 - Up Jumped The Boogie.wav

     Pre-gap length  0:00:02.00

     Peak level 99.6 %
     Extraction speed 2.1 X
     Track quality 100.0 %
     Test CRC 20A5F0E4
     Copy CRC 20A5F0E4
     Track not present in AccurateRip database
     Copy OK

Track  2

     Filename C:\EAC Rips\The Tractors - Trade Union (2009) [FLAC]\02 - Pick Me Up On Your Way Down.wav

     Pre-gap length  0:00:02.10

     Peak level 99.8 %
     Extraction speed 2.4 X
     Track quality 100.0 %
     Test CRC A059552F
     Copy CRC A059552F
     Track not present in AccurateRip database
     Copy OK

Track  3

     Filename C:\EAC Rips\The Tractors - Trade Union (2009) [FLAC]\03 - Rhythm Bone.wav

     Peak level 99.8 %
     Extraction speed 2.7 X
     Track quality 100.0 %
     Test CRC 1794874E
     Copy CRC 1794874E
     Track not present in AccurateRip database
     Copy OK

Track  4

     Filename C:\EAC Rips\The Tractors - Trade Union (2009) [FLAC]\04 - Good Old Days.wav

     Pre-gap length  0:00:02.64

     Peak level 99.8 %
     Extraction speed 2.7 X
     Track quality 100.0 %
     Test CRC 9D266CD7
     Copy CRC 9D266CD7
     Track not present in AccurateRip database
     Copy OK

Track  5

     Filename C:\EAC Rips\The Tractors - Trade Union (2009) [FLAC]\05 - There's Gonna Be Some Changes Made.wav

     Pre-gap length  0:00:01.40

     Peak level 99.8 %
     Extraction speed 2.8 X
     Track quality 100.0 %
     Test CRC BEADC5A0
     Copy CRC BEADC5A0
     Track not present in AccurateRip database
     Copy OK

Track  6

     Filename C:\EAC Rips\The Tractors - Trade Union (2009) [FLAC]\06 - My Blue Heart.wav

     Peak level 99.4 %
     Extraction speed 3.0 X
     Track quality 100.0 %
     Test CRC 1B1DD3F3
     Copy CRC 1B1DD3F3
     Track not present in AccurateRip database
     Copy OK

Track  7

     Filename C:\EAC Rips\The Tractors - Trade Union (2009) [FLAC]\07 - What Makes Love Go Bad.wav

     Pre-gap length  0:00:03.00

     Peak level 99.8 %
     Extraction speed 2.6 X
     Track quality 99.9 %
     Test CRC 3403BD9D
     Copy CRC 3403BD9D
     Track not present in AccurateRip database
     Copy OK

Track  8

     Filename C:\EAC Rips\The Tractors - Trade Union (2009) [FLAC]\08 - That's Where It Hurts.wav

     Pre-gap length  0:00:01.69

     Peak level 96.8 %
     Extraction speed 3.2 X
     Track quality 100.0 %
     Test CRC 8814787B
     Copy CRC 8814787B
     Track not present in AccurateRip database
     Copy OK

Track  9

     Filename C:\EAC Rips\The Tractors - Trade Union (2009) [FLAC]\09 - Midnight Train.wav

     Peak level 99.8 %
     Extraction speed 3.2 X
     Track quality 99.9 %
     Test CRC 13037E78
     Copy CRC 13037E78
     Track not present in AccurateRip database
     Copy OK

Track 10

     Filename C:\EAC Rips\The Tractors - Trade Union (2009) [FLAC]\10 - It's Only Love.wav

     Pre-gap length  0:00:01.22

     Peak level 99.8 %
     Extraction speed 3.3 X
     Track quality 100.0 %
     Test CRC E9536B47
     Copy CRC E9536B47
     Track not present in AccurateRip database
     Copy OK


None of the tracks are present in the AccurateRip database

No errors occurred

End of status report

==== Log checksum 9D1A1696A339902D74567201E6E6ABDC4FA88174B63CA2E874D921D4F6B0923B ====

CUE sheet
Code:
REM GENRE "Country Rock"
REM DATE 2009
REM DISCID 9D09200A
REM COMMENT "ExactAudioCopy v1.0b3"
PERFORMER "The Tractors"
TITLE "Trade Union"
FILE "01 - Up Jumped The Boogie.wav" WAVE
  TRACK 01 AUDIO
    TITLE "Up Jumped The Boogie"
    PERFORMER "The Tractors"
    ISRC H2:4J0510104
    INDEX 01 00:00:00
  TRACK 02 AUDIO
    TITLE "Pick Me Up On Your Way Down"
    PERFORMER "The Tractors"
    ISRC H2:4J0510102
    INDEX 00 03:31:67
FILE "02 - Pick Me Up On Your Way Down.wav" WAVE
    INDEX 01 00:00:00
FILE "03 - Rhythm Bone.wav" WAVE
  TRACK 03 AUDIO
    TITLE "Rhythm Bone"
    PERFORMER "The Tractors"
    ISRC H2:4J0510103
    INDEX 01 00:00:00
  TRACK 04 AUDIO
    TITLE "Good Old Days"
    PERFORMER "The Tractors"
    ISRC H2:4J0510101
    INDEX 00 05:16:45
FILE "04 - Good Old Days.wav" WAVE
    INDEX 01 00:00:00
  TRACK 05 AUDIO
    TITLE "There's Gonna Be Some Changes Made"
    PERFORMER "The Tractors"
    ISRC H2:4J0510105
    INDEX 00 03:04:19
FILE "05 - There's Gonna Be Some Changes Made.wav" WAVE
    INDEX 01 00:00:00
FILE "06 - My Blue Heart.wav" WAVE
  TRACK 06 AUDIO
    TITLE "My Blue Heart"
    PERFORMER "The Tractors"
    ISRC H2:4J0510106
    INDEX 01 00:00:00
  TRACK 07 AUDIO
    TITLE "What Makes Love Go Bad"
    PERFORMER "The Tractors"
    ISRC H2:4J0510107
    INDEX 00 03:28:74
FILE "07 - What Makes Love Go Bad.wav" WAVE
    INDEX 01 00:00:00
  TRACK 08 AUDIO
    TITLE "That's Where It Hurts"
    PERFORMER "The Tractors"
    ISRC H2:4J0510108
    INDEX 00 03:26:68
FILE "08 - That's Where It Hurts.wav" WAVE
    INDEX 01 00:00:00
FILE "09 - Midnight Train.wav" WAVE
  TRACK 09 AUDIO
    TITLE "Midnight Train"
    PERFORMER "The Tractors"
    ISRC H2:4J0510109
    INDEX 01 00:00:00
  TRACK 10 AUDIO
    TITLE "It's Only Love"
    PERFORMER "The Tractors"
    ISRC H2:4J0510110
    INDEX 00 05:56:69
FILE "10 - It's Only Love.wav" WAVE
    INDEX 01 00:00:00


mail.ru : rusfolder

_________________
One more beer and Heavy Metal and I'm just fine!
старовер, куле... слово "блин" - до сих пор через Ъ говорю


Top
 Profile E-mail  
 
 
PostPosted: 19 Mar 2014 
Old Time Rock`n`Roll
User avatar
Joined: 23 Jun 2008
Posts: 3371
Lоcаtion: г.Ульяновск
Age: 40
Name: Константин
Спасибо :thanx:


Top
 Profile  
 
 
PostPosted: 19 Mar 2014 
Хиппей (support team)
User avatar
Joined: 30 Jul 2007
Posts: 108901
Lоcаtion: Киев (Kyiv, UA)
Age: 45
Name: Andrey
:thanx:

Narod l M-Cloud

_________________


Top
 Profile E-mail  
 
 
PostPosted: 20 Mar 2014 
Хиппей (support team)
User avatar
Joined: 30 Jul 2007
Posts: 108901
Lоcаtion: Киев (Kyiv, UA)
Age: 45
Name: Andrey
Полы мыл и слушал альбом. Очень хорошо получилось оба дела :dance: :meloman:

_________________


Top
 Profile E-mail  
 
 
PostPosted: 20 Mar 2014 
Old Time Rock`n`Roll
User avatar
Joined: 23 Jun 2008
Posts: 3371
Lоcаtion: г.Ульяновск
Age: 40
Name: Константин
Неужели 8-9/10 ? ))


Top
 Profile  
 
 
PostPosted: 20 Mar 2014 
Хиппей (support team)
User avatar
Joined: 30 Jul 2007
Posts: 108901
Lоcаtion: Киев (Kyiv, UA)
Age: 45
Name: Andrey
Не, как минимум 90/100/90 :true:

_________________


Top
 Profile E-mail  
 
Display posts from previous:  Sort by  
Post new topic Reply to topic  [ 22 posts ]  Go to page 1, 2  Next

All times are UTC + 3 hours


Who is online

Users browsing this forum: No registered users and 4 guests


You cannot post new topics in this forum
You cannot reply to topics in this forum
You cannot edit your posts in this forum
You cannot delete your posts in this forum
You cannot post attachments in this forum

Search for:
Яндекс.Метрика
Powered by phpBB © 2000, 2002, 2005, 2007 phpBB Group