\m/ 80's metal \m/

Информационно-аналитический форум "80 см пыли" (In Search We Trust) "У нас никто никуда не спешит"
Me For You - http://me-4u.com
It is currently 21 Jun 2021

All times are UTC + 3 hours

Spoiler
Chat - temporary registration for foreign users (please leave your application here)





Forum rules


Правила форума - скоро будут



Post new topic Reply to topic  [ 70 posts ]  Go to page 1, 2, 3, 4  Next
Author Message
 
PostPosted: 09 May 2013 
Рарник и трушник
User avatar
Joined: 25 Dec 2009
Posts: 9486
Lоcаtion: Москва
Age: 55
Name: Виталий
Image

Xxaron
The Legacy 1985
Country of origin:Germany
Location:Cologne, North Rhine-Westphalia
Formed in:1983
Genre:Power Metal
Last label:Earthshaker Records
Years active:1983-1986

1. The Legacy 01:14
2. Straight from Hell 04:35
3. Nomed Rules Again 04:23
4. Born by the Sin 03:10
5. Son of Light 06:26
6. The Key 04:22
7. Dance on Fire 03:59
8. Dust and Diamonds 04:01
9. Lost in the Dark 04:25
10. Black Magic Mystery


http://yadi.sk/d/Z5neozrV4f_2H
Винил рип 24/95, очищенный. Очистка состоит из ручного удаления крупных и мелких щелчков, нормалайз 0 дБ, fade in/out, decliker в конце каждого трека по 1 сек.


Image

Image

> All links in one topic / Все ссылки в одной теме:
Xxaron - [Germany] - 1985 - The Legacy (24/96) [Earthshaker Records, ES 4010]


В тему добавлен: винил-рип от Леонида (24-96):
https://rutracker.org/forum/viewtopic.php?t=5526707
https://80metal.com/viewtopic.php?p=326250#p326250


Last edited by Scatterbrain on 26 Jan 2019, edited 3 times in total.
доработка и исправление


Top
 Profile  
 
 
PostPosted: 09 May 2013 
дядя Миша
User avatar
Joined: 17 Oct 2008
Posts: 3555
Lоcаtion: USSR
Age: 58
Name: Khy
Vitaly65
У тебя есть группа с кторой аватарка твоя сделана?


Top
 Profile  
 
 
PostPosted: 09 May 2013 
Power Metal Maniac
User avatar
Joined: 09 Aug 2008
Posts: 7437
Lоcаtion: Москва
Age: 43
Name: Егор
:thanx: ознакомлюсь, жанр Power как всегда интригует.

_________________
Long Live Metal!


Top
 Profile  
 
 
PostPosted: 09 May 2013 
Рарник и трушник
User avatar
Joined: 25 Dec 2009
Posts: 9486
Lоcаtion: Москва
Age: 55
Name: Виталий
VARVAAR wrote:
Vitaly65
У тебя есть группа с кторой аватарка твоя сделана?


Ну да, есть. Keen Hue - 1985 Ogre King. :benya:
Тож моя оцифровка с винила. Выходил на Criminal Response/Ebony Rec.


Top
 Profile  
 
 
PostPosted: 09 May 2013 
Доктор энтомологии
User avatar
Joined: 22 Jan 2009
Posts: 10406
Lоcаtion: Даугавпилс
Age: 46
Name: Алексей
:thanx: :true:


Top
 Profile  
 
 
PostPosted: 09 May 2013 
Труъ
User avatar
Joined: 27 Feb 2009
Posts: 186
Lоcаtion: Питер
Age: 54
Name: Олег
Большое спасибо !


Top
 Profile  
 
 
PostPosted: 09 May 2013 
дядя Миша
User avatar
Joined: 17 Oct 2008
Posts: 3555
Lоcаtion: USSR
Age: 58
Name: Khy
Vitaly65
Quote:
Ну да, есть. Keen Hue - 1985 Ogre King. :benya:
Тож моя оцифровка с винила. Выходил на Criminal Response/Ebony Rec.


Выложи! :pardon:


Top
 Profile  
 
 
PostPosted: 09 May 2013 
Рарник и трушник
User avatar
Joined: 25 Dec 2009
Posts: 9486
Lоcаtion: Москва
Age: 55
Name: Виталий
VARVAAR wrote:
Выложи! :pardon:


ОК, чуть позже ток, ща десяток раздач оформлю. Каторга - заливать на ядиск. :dash:


Top
 Profile  
 
 
PostPosted: 09 May 2013 
дядя Миша
User avatar
Joined: 17 Oct 2008
Posts: 3555
Lоcаtion: USSR
Age: 58
Name: Khy
У меня и с майла нормально качает.


Top
 Profile  
 
 
PostPosted: 09 May 2013 
А может смените мне статус?..
Joined: 03 Jul 2009
Posts: 981
Lоcаtion: Serbia
Name: Laki
Excellent stuff. Thanks!!!


Top
 Profile E-mail  
 
 
PostPosted: 15 May 2013 
Работнечег
User avatar
Joined: 28 Aug 2007
Posts: 6363
Lоcаtion: г. Москва
Age: 32
Name: Дима
Спасибо! Отличная группка :true:


Top
 Profile E-mail  
 
 
PostPosted: 17 May 2013 
Прокъмитолист
User avatar
Joined: 12 Aug 2007
Posts: 6835
Lоcаtion: Санктъ-Петербуркъ
Age: 53
Name: Олекъ
огромная просьба к Виталию или к кому-то из скачавших: нельзя ли залить отдельно 9-й трэк (09_Xxaron-85_24-96.wav)? :umnik:

_________________
прокъметол - это музыко, от которово есть прок (ы)


Top
 Profile  
 
 
PostPosted: 17 May 2013 
парень в очёчкXаX!
User avatar
Joined: 15 Aug 2007
Posts: 2353
Lоcаtion: UK'раина, г. ЛондАн Би-Би-Си
Age: 50
Name: Сергей
вот интересно, как этот материал почистили в студии перед тем, как выпустить на цыде в 10-м году

2spiralarch:
давай колись, шо там на 9-м треке такого интересного? или мож где в сборках на цыде есть и ты хочешь сравнить? :meloman:

у меня руфолдер самый самый быстрый--------> держи 09_Xxaron-85_24-96.wav


Top
 Profile  
 
 
PostPosted: 17 May 2013 
Я набрал 1000 сообщений!
User avatar
Joined: 25 Dec 2008
Posts: 1545
Age: 45
Name: Павел
attax wrote:
вот интересно, как этот материал почистили в студии перед тем, как выпустить на цыде в 10-м году

Я пока не сравнивал, но вот Dealer сделали дерьмово


Top
 Profile  
 
 
PostPosted: 17 May 2013 
Прокъмитолист
User avatar
Joined: 12 Aug 2007
Posts: 6835
Lоcаtion: Санктъ-Петербуркъ
Age: 53
Name: Олекъ
attax wrote:
давай колись, шо там на 9-м треке такого интересного?

интересного там сопсна вот что: не хочет у меня качать с ядиска, постоянно обрывается, и докачки на этом долбанном обменнике нет :dash: на последней попытке оборвалось на 92-х процентах, не докачан оказался как раз 9-й трэк. так что, Серёг, спасибо! :true: и спасибо Виталию за оцифровку, разумеется :thanx:

_________________
прокъметол - это музыко, от которово есть прок (ы)


Top
 Profile  
 
 
PostPosted: 18 May 2013 
\m/ 80 см сала \m/
User avatar
Joined: 12 Mar 2012
Posts: 2599
Age: 28
Name: Nick
Спасибо за рип и отдельно за 9 трек - точно такая же проблема с обрывом на яндексе.
MP3@320 CBR: Rusfolder

_________________
1990 AUROPHON BRAINSTORM (Germany) - lossless
1994 MAUSOLEUM CLASSIX (Belgium-Germany) - lossless
1998 VA - GRIM HARVEST - Complete Metal Massacre Volumes I-XII


Top
 Profile  
 
 
PostPosted: 13 Jun 2013 
Рарник и трушник
User avatar
Joined: 25 Dec 2009
Posts: 9486
Lоcаtion: Москва
Age: 55
Name: Виталий
Добавил сканы. :umnik:


Top
 Profile  
 
 
PostPosted: 13 Jun 2013 
Работнечег
User avatar
Joined: 28 Aug 2007
Posts: 6363
Lоcаtion: г. Москва
Age: 32
Name: Дима
:thanx:


Top
 Profile E-mail  
 
 
PostPosted: 15 Jun 2013 
Хиппей (support team)
User avatar
Joined: 30 Jul 2007
Posts: 121833
Lоcаtion: Киев (Kyiv, UA)
Age: 48
Name: Andrey
:thanx:

_________________


Top
 Profile E-mail  
 
 
PostPosted: 04 Jul 2013 
\m/ 80 см сала \m/
User avatar
Joined: 12 Mar 2012
Posts: 2599
Age: 28
Name: Nick
.cue | +
Code:
REM GENRE Metal
REM DATE 1985
PERFORMER "Xxaron"
TITLE "The Legacy (vinyl rip 24/96)"
FILE "01_Xxaron-85_24-96.wav" WAVE
  TRACK 01 AUDIO
    TITLE "The Legacy"
    PERFORMER "Xxaron"
    INDEX 01 00:00:00
FILE "02_Xxaron-85_24-96.wav" WAVE
  TRACK 02 AUDIO
    TITLE "Straight from hell"
    PERFORMER "Xxaron"
    INDEX 01 00:00:00
FILE "03_Xxaron-85_24-96.wav" WAVE
  TRACK 03 AUDIO
    TITLE "Nomed rules again"
    PERFORMER "Xxaron"
    INDEX 01 00:00:00
FILE "04_Xxaron-85_24-96.wav" WAVE
  TRACK 04 AUDIO
    TITLE "Born by the Sin"
    PERFORMER "Xxaron"
    INDEX 01 00:00:00
FILE "05_Xxaron-85_24-96.wav" WAVE
  TRACK 05 AUDIO
    TITLE "Son of Light"
    PERFORMER "Xxaron"
    INDEX 01 00:00:00
FILE "06_Xxaron-85_24-96.wav" WAVE
  TRACK 06 AUDIO
    TITLE "The Key"
    PERFORMER "Xxaron"
    INDEX 01 00:00:00
FILE "07_Xxaron-85_24-96.wav" WAVE
  TRACK 07 AUDIO
    TITLE "Dance on fire"
    PERFORMER "Xxaron"
    INDEX 01 00:00:00
FILE "08_Xxaron-85_24-96.wav" WAVE
  TRACK 08 AUDIO
    TITLE "Dust and Diamonds"
    PERFORMER "Xxaron"
    INDEX 01 00:00:00
FILE "09_Xxaron-85_24-96.wav" WAVE
  TRACK 09 AUDIO
    TITLE "Lost in the dark"
    PERFORMER "Xxaron"
    INDEX 01 00:00:00
FILE "10_Xxaron-85_24-96.wav" WAVE
  TRACK 10 AUDIO
    TITLE "Black Magic Mystery"
    PERFORMER "Xxaron"
    INDEX 01 00:00:00

_________________
1990 AUROPHON BRAINSTORM (Germany) - lossless
1994 MAUSOLEUM CLASSIX (Belgium-Germany) - lossless
1998 VA - GRIM HARVEST - Complete Metal Massacre Volumes I-XII


Top
 Profile  
 
Display posts from previous:  Sort by  
Post new topic Reply to topic  [ 70 posts ]  Go to page 1, 2, 3, 4  Next

All times are UTC + 3 hours


Who is online

Users browsing this forum: No registered users and 1 guest


You cannot post new topics in this forum
You cannot reply to topics in this forum
You cannot edit your posts in this forum
You cannot delete your posts in this forum
You cannot post attachments in this forum

Search for:
Яндекс.Метрика
cron
Powered by phpBB © 2000, 2002, 2005, 2007 phpBB Group