\m/ 80's metal \m/

Информационно-аналитический форум "80 см пыли" (In Search We Trust) "У нас никто никуда не спешит"
Me For You - http://me-4u.com
It is currently 18 Feb 2020

All times are UTC + 3 hours

Spoiler
Chat - temporary registration for foreign users (please leave your application here)





Forum rules


Уважаемые пользователи ресурса, друзья, коллеги и гости нашего форума. Данный раздел конференции создан с целью рафинации, и посвящён такому стилевому направлению в музыке, как Thrash Metal во всех его проявлениях и ипостасях, а иногда и переходящему на пограничные стили Speed, Power, Groove, Crossover, MDM и т.п.
Главное правило здесь одно: Одна группа – одна тема! Всё остальное созвучно основным нормам поведения на конференции.
Шаблон оформления тем в этом подфоруме должен быть основан на данных сайта www.metal-archives.com и выглядеть следующим образом:

Группа (Страна) - Стилевые рамки - дискография
Slayer (USA) - Thrash Metal - дискография


В теме допустимо размещение всей информации касающейся данного коллектива: анонсы любых альбомов в любых форматах, запросы любых релизов коллектива (кроме релизов текущего и прошлого годов), обсуждения, обзоры, а в остальном всё как обычно. Уважаем друг друга, не грубим, соблюдаем нормы поведения на конференции, оформляем анонсы и запросы красиво и информативно, что бы модераторы не посчитали их троллингом, и не отправили куда положено, выписав Вам предупреждение или ещё что похуже… Прежде чем что-то запросить или запостить, пользуемся поиском! Пользуемся поиском! ПОЛЬЗУЕМСЯ ПОИСКОМ!!! Так слышно меня?.. :pardon:
Интересного, конструктивного и креативного общения! ;)

Image



Post new topic Reply to topic  [ 458 posts ]  Go to page Previous  1 ... 12, 13, 14, 15, 16, 17, 18 ... 23  Next
Author Message
 
PostPosted: 03 May 2013 
А может смените мне статус?..
User avatar
Joined: 28 Jul 2008
Posts: 993
Lоcаtion: Украина---Днепропетровск
Age: 45
Name: Александр
Жаль ! :( :( :( Но Ханеман-это не Slayer--Slayer умрет если покинет группу один из двоих-Кери или Том :true:

_________________
Музыка в которой я растворяюсь многих угнетает......


Top
 Profile  
 
 
PostPosted: 03 May 2013 
Хиппей (support team)
User avatar
Joined: 30 Jul 2007
Posts: 117485
Lоcаtion: Киев (Kyiv, UA)
Age: 46
Name: Andrey
Да, не умрёт группа, но человека жаль... :(

_________________


Top
 Profile E-mail  
 
 
PostPosted: 03 May 2013 
Доктор энтомологии
User avatar
Joined: 22 Jan 2009
Posts: 10096
Lоcаtion: Даугавпилс
Age: 44
Name: Алексей
надо за упокой пропустить по стопочке :(


Top
 Profile  
 
 
PostPosted: 03 May 2013 
мелосмертхстер
User avatar
Joined: 11 Jul 2008
Posts: 1058
Lоcаtion: (Әлмәт/Самара)
Age: 43
Name: Rus†Ⓐm
Entomologist wrote:
надо за упокой пропустить по стопочке

я уже пропускаю, хоть и пиндрец как нельзя. R.I.P.

_________________
Everytime I Die

Image


Top
 Profile E-mail  
 
 
PostPosted: 05 May 2013 
Анатолий
User avatar
Joined: 18 Oct 2008
Posts: 3730
Lоcаtion: Армавир
Age: 42
Name: Анатолий
Жуткая новость...


Top
 Profile E-mail  
 
 
PostPosted: 17 Jun 2013 
Хиппей (support team)
User avatar
Joined: 30 Jul 2007
Posts: 117485
Lоcаtion: Киев (Kyiv, UA)
Age: 46
Name: Andrey
Quote:
Давний контакт с животным вызвал у гитариста печеночную недостаточность и чуть не оставил без руки.

В США от печеночной недостаточности на 50-м году жизни скончался один из основателей трэш-металлической группы Slayer Джефф Ханнеман. Болезнь печени он «заработал» после укуса паука в 2011 году.

Как рассказывал сам музыкант, он принимал горячую ванну с холодным пивом. Ханнеман не сразу заметил, что за руку его кусает паук. Зато уже через час музыкант «видел, как разлагается плоть».

Укус паука вызвал бактериальное заражение нижних слоев кожи и тканей руки, Ханнеману грозило вообще остаться без нее. Долгое время гитарист восстанавливался, но так и не смог оправиться. Контакт с насекомым принес осложнения в виде печеночной недостаточности.

http://www.ntv.ru/novosti/579957

Случайно у Оксаны в Мордобуке обнаружил сылку на подобную новость.
Жуть, кто такой текст составляет? :shok:

_________________


Top
 Profile E-mail  
 
 
PostPosted: 12 Aug 2013 
\m/ 80 см сала \m/
User avatar
Joined: 12 Mar 2012
Posts: 2590
Age: 26
Name: Nick
Image

SLAYER - "Reign in Bloodstock" (Live at Bloodstock Open Air, UK) - 11 AUGUST 2013

Источник: собственный web-rip
[захват звука с системы в .wav 16/44 -> Adobe Audition |убрал паузы, вызванные торможением web-стрима| -> foobar2000 -> flac]
Качество записи: ~soundboard (срез на 10,4-14,0 kHz) /на слух примерно как mp3@192/
*Первые две песни в сете Slayer срезаны на 10,4 kHz.

line-up:
Kerry King - guitars
Tom Araya - vocals, bass
Paul Bostaph - drums
Gary Holt - guitars (live)

set-list:
01. World Painted Blood 06:21
02. Disciple 05:11
03. War Ensemble 04:56
04. Hallowed Point 03:33
05. At Dawn They Sleep 07:11
06. Mandatory Suicide 03:56
07. Altar of Sacrifice 02:52
08. Jesus Saves 03:03
09. Spirit in Black 05:56
10. Postmortem 03:42
11. Snuff 03:31
12. Hate Worldwide 02:59
13. Seasons in the Abyss 05:50
14. Hell Awaits 06:08
15. Dead Skin Mask 05:19
16. Raining Blood 4:41
17. South of Heaven 4:12
18. Angel of Death 06:00

.cue
Code:
REM GENRE Metal
REM DATE 2013.08.11
PERFORMER "Slayer"
TITLE "Live @ Bloodstock Open Air, UK (web-rip ~SBD)"
FILE "slayer_bloodstock.flac" WAVE
  TRACK 01 AUDIO
    TITLE "World Painted Blood"
    INDEX 01 00:00:00
  TRACK 02 AUDIO
    TITLE "Disciple"
    INDEX 01 06:20:42
  TRACK 03 AUDIO
    TITLE "War Ensemble"
    INDEX 01 11:31:32
  TRACK 04 AUDIO
    TITLE "Hallowed Point"
    INDEX 01 16:27:37
  TRACK 05 AUDIO
    TITLE "At Dawn They Sleep"
    INDEX 01 20:00:74
  TRACK 06 AUDIO
    TITLE "Mandatory Suicide"
    INDEX 01 27:11:74
  TRACK 07 AUDIO
    TITLE "Altar of Sacrifice"
    INDEX 01 31:08:18
  TRACK 08 AUDIO
    TITLE "Jesus Saves"
    INDEX 01 34:00:29
  TRACK 09 AUDIO
    TITLE "Spirit in Black"
    INDEX 01 37:03:08
  TRACK 10 AUDIO
    TITLE "Postmortem"
    INDEX 01 42:58:62
  TRACK 11 AUDIO
    TITLE "Snuff"
    INDEX 01 46:41:20
  TRACK 12 AUDIO
    TITLE "Hate Worldwide"
    INDEX 01 50:11:74
  TRACK 13 AUDIO
    TITLE "Seasons in the Abyss"
    INDEX 01 53:10:50
  TRACK 14 AUDIO
    TITLE "Hell Awaits"
    INDEX 01 59:01:06
  TRACK 15 AUDIO
    TITLE "Dead Skin Mask"
    INDEX 01 65:09:08
  TRACK 16 AUDIO
    TITLE "Raining Blood"
    INDEX 01 70:28:34
  TRACK 17 AUDIO
    TITLE "South of Heaven"
    INDEX 01 75:09:02
  TRACK 18 AUDIO
    TITLE "Angel of Death"
    INDEX 01 79:21:19

Image

FLAC
MP3@VBR 0
Смотреть концерт на youtube (другой источник)

_________________
1990 AUROPHON BRAINSTORM (Germany) - lossless
1994 MAUSOLEUM CLASSIX (Belgium-Germany) - lossless
1998 VA - GRIM HARVEST - Complete Metal Massacre Volumes I-XII


Top
 Profile  
 
 
PostPosted: 13 Aug 2013 
Хиппей (support team)
User avatar
Joined: 30 Jul 2007
Posts: 117485
Lоcаtion: Киев (Kyiv, UA)
Age: 46
Name: Andrey
:thanx:

mirror: F-Bit l Narod

_________________


Top
 Profile E-mail  
 
 
PostPosted: 13 Aug 2013 
\m/ 80 см сала \m/
User avatar
Joined: 12 Mar 2012
Posts: 2590
Age: 26
Name: Nick
Кто вдруг решит заценить (шо, никто?) - смело накручивайте звук на колонках, уж больно тихая запись, из-за этого первое впечатление смазывается. Громче и веселее, и... громче :pardon:

_________________
1990 AUROPHON BRAINSTORM (Germany) - lossless
1994 MAUSOLEUM CLASSIX (Belgium-Germany) - lossless
1998 VA - GRIM HARVEST - Complete Metal Massacre Volumes I-XII


Top
 Profile  
 
 
PostPosted: 13 Aug 2013 
Хиппей (support team)
User avatar
Joined: 30 Jul 2007
Posts: 117485
Lоcаtion: Киев (Kyiv, UA)
Age: 46
Name: Andrey
Эх... Ник, со звуком немного накладочка вышла. Побулькивание, как минимум. Остальное в колонках не так слышно. Особенно в одной =)
Но всё равно мерси и пряники :true: Слауэр давит своей энергетикой :smerd: :sp: :bah:

_________________


Top
 Profile E-mail  
 
 
PostPosted: 13 Aug 2013 
\m/ 80 см сала \m/
User avatar
Joined: 12 Mar 2012
Posts: 2590
Age: 26
Name: Nick
Scatterbrain wrote:
Эх... Ник, со звуком немного накладочка вышла. Побулькивание, как минимум

Маемо тэ, що маемо. Такой источник уже, что поделаешь. Звук грязный, но в нем есть своя эстетика, вроде старых бутлегов 80-тых годов.
А энергетика да, лютая. Я своим невидимым хаером весь концерт хэдбендил, на постмортем вообще крышу чуть не снесло и едва не пошел слемиться со шкафом :true: :true: :true:

_________________
1990 AUROPHON BRAINSTORM (Germany) - lossless
1994 MAUSOLEUM CLASSIX (Belgium-Germany) - lossless
1998 VA - GRIM HARVEST - Complete Metal Massacre Volumes I-XII


Top
 Profile  
 
 
PostPosted: 13 Aug 2013 
Хиппей (support team)
User avatar
Joined: 30 Jul 2007
Posts: 117485
Lоcаtion: Киев (Kyiv, UA)
Age: 46
Name: Andrey
Ага, про глючной стрим на Слесарях помню, я то думал это у меня булькает звук от закипающего рядом в шкафу чайника :fingal:

_________________


Top
 Profile E-mail  
 
 
PostPosted: 15 Aug 2013 
\m/ 80 см сала \m/
User avatar
Joined: 12 Mar 2012
Posts: 2590
Age: 26
Name: Nick
SLAYER @ Bloodstock Festival 2013 [Pro-shot full concert] (HD QUALITY)

_________________
1990 AUROPHON BRAINSTORM (Germany) - lossless
1994 MAUSOLEUM CLASSIX (Belgium-Germany) - lossless
1998 VA - GRIM HARVEST - Complete Metal Massacre Volumes I-XII


Top
 Profile  
 
 
PostPosted: 15 Aug 2013 
Хиппей (support team)
User avatar
Joined: 30 Jul 2007
Posts: 117485
Lоcаtion: Киев (Kyiv, UA)
Age: 46
Name: Andrey
Там видео :dance:

_________________


Top
 Profile E-mail  
 
 
PostPosted: 20 Sep 2013 
Хиппей (support team)
User avatar
Joined: 30 Jul 2007
Posts: 117485
Lоcаtion: Киев (Kyiv, UA)
Age: 46
Name: Andrey
Кто-то подскажет, откуда этот постер. Вернее, к какому альбому или синглу группы :oops:

Image

_________________


Top
 Profile E-mail  
 
 
PostPosted: 21 Sep 2013 
консэрваторъ
User avatar
Joined: 11 Aug 2007
Posts: 17545
Lоcаtion: Псков
Age: 45
Name: Сергей
Похоже, что это просто тема с футполки по мотивам одноимённой песни с царствования в кровушке...

_________________
THRASH 'EM ALL


Top
 Profile E-mail  
 
 
PostPosted: 07 Oct 2013 
Хиппей (support team)
User avatar
Joined: 30 Jul 2007
Posts: 117485
Lоcаtion: Киев (Kyiv, UA)
Age: 46
Name: Andrey
Slayer - 1983 - Live Undead [ape] ripped by Rockberto from MMT

Image
Image

Line-up:
Kerry King - guitars, lyrics (tracks 1, 3, 5-7)
Tom Araya - vocals, bass
Jeff Hanneman - (R.I.P. 2013) - guitars, lyrics (tracks 2-5, 7)
Dave Lombardo - drums

    1. Black Magic - 03:56
    2. Die by the Sword - 04:01
    3. Captor of Sin - 03:32
    4. The Antichrist - 02:57
    5. Evil Has No Boundaries - 02:54
    6. Show No Mercy - 03:04
    7. Aggressive Perfector - 02:32
    8. Chemical Warfare - 06:02

    TPT: 28:58

Narod

Инфу чуть позже добавлю.*добавил*

А вот пару словей прям щас. Хороший заловый альбом с прекрасными песнями.
Что и как здесь записывалось, не знаю, но мне звук понравился :dance:
Думал лося взял где-то по ссылкам у нас, оказалось, что нет. Зачем качал и для кого, не помню. Всё... :pardon:

log
EAC extraction logfile from 16. March 2008, 19:51 for CD
Slayer / Live Undead

Used drive : PLEXTOR CD-R PX-230A Adapter: 5 ID: 1
Read mode : Secure with NO C2, accurate stream, disable cache
Read offset correction : 738
Overread into Lead-In and Lead-Out : No

Used output format : C:\Programmi\Exact Audio Copy\MAC.EXE (Monkey's Audio Lossless Encoder)
High Lossless Compression

Other options :
Fill up missing offset samples with silence : Yes
Delete leading and trailing silent blocks : No
Native Win32 interface for Win NT & 2000


Range status and errors
Selected range
Filename C:\Documents and Settings\oem\Documenti\Musica\Slayer - Live Undead\Slayer - Live Undead.wav.wav

Peak level 72.2 %
Range quality 100.0 %
CRC 779717CD
Copy OK

No errors occured

End of status report

cue
REM GENRE Metal
REM DATE 1983
REM DISCID 6E06CA08
REM COMMENT "ExactAudioCopy v0.95b4"
PERFORMER "Slayer"
TITLE "Live Undead"
FILE "Slayer - Live Undead.wav" WAVE
TRACK 01 AUDIO
TITLE "Black Magic"
PERFORMER "Slayer"
INDEX 01 00:00:00
TRACK 02 AUDIO
TITLE "Die by the Sword"
PERFORMER "Slayer"
INDEX 00 03:56:02
INDEX 01 03:56:05
TRACK 03 AUDIO
TITLE "Captor of Sin"
PERFORMER "Slayer"
INDEX 00 07:57:31
INDEX 01 07:57:32
TRACK 04 AUDIO
TITLE "The Antichrist"
PERFORMER "Slayer"
INDEX 00 11:29:65
INDEX 01 11:29:67
TRACK 05 AUDIO
TITLE "Evil Has no Boundaries"
PERFORMER "Slayer"
INDEX 00 14:26:37
INDEX 01 14:26:40
TRACK 06 AUDIO
TITLE "Show no Mercy"
PERFORMER "Slayer"
INDEX 00 17:20:00
INDEX 01 17:20:02
TRACK 07 AUDIO
TITLE "Aggressive Perfector"
PERFORMER "Slayer"
INDEX 00 20:24:65
INDEX 01 20:24:67
TRACK 08 AUDIO
TITLE "Chemical Warfare"
PERFORMER "Slayer"
INDEX 00 22:54:35
INDEX 01 22:56:25

spectrum
Image

_________________


Top
 Profile E-mail  
 
 
PostPosted: 07 Oct 2013 
ТрэшЭрос
User avatar
Joined: 18 Jul 2011
Posts: 2307
Lоcаtion: Гулькевичи
Age: 45
Name: Александр
:thanx:
Это?

_________________
Thrash no trash!!!


Top
 Profile E-mail  
 
 
PostPosted: 07 Oct 2013 
Хиппей (support team)
User avatar
Joined: 30 Jul 2007
Posts: 117485
Lоcаtion: Киев (Kyiv, UA)
Age: 46
Name: Andrey
Ага :dance: Только выше переиздание от 87 года.

Ща добавлю хоть трэк-лист и картинки.

_________________


Top
 Profile E-mail  
 
 
PostPosted: 08 Oct 2013 
5-speed satisfactor
User avatar
Joined: 16 Feb 2009
Posts: 3832
Lоcаtion: New York, USA
Age: 41
Name: Leonid
Кто скажет, это такая же цифра, что и у мериканского оригинального издания от Metal Blade?

_________________
Death rules! Metal to all who oppose!


Top
 Profile  
 
Display posts from previous:  Sort by  
Post new topic Reply to topic  [ 458 posts ]  Go to page Previous  1 ... 12, 13, 14, 15, 16, 17, 18 ... 23  Next

All times are UTC + 3 hours


Who is online

Users browsing this forum: No registered users and 4 guests


You cannot post new topics in this forum
You cannot reply to topics in this forum
You cannot edit your posts in this forum
You cannot delete your posts in this forum
You cannot post attachments in this forum

Search for:
Яндекс.Метрика
Powered by phpBB © 2000, 2002, 2005, 2007 phpBB Group