\m/ 80's metal \m/

Информационно-аналитический форум "80 см пыли" (In Search We Trust) "У нас никто никуда не спешит"
Me For You - http://me-4u.com
It is currently 16 Feb 2019

All times are UTC + 3 hours

Spoiler
Chat - temporary registration for foreign users (please leave your application here)





Forum rules


Уважаемые пользователи ресурса, друзья, коллеги и гости нашего форума. Данный раздел конференции создан с целью рафинации, и посвящён такому стилевому направлению в музыке, как Thrash Metal во всех его проявлениях и ипостасях, а иногда и переходящему на пограничные стили Speed, Power, Groove, Crossover, MDM и т.п.
Главное правило здесь одно: Одна группа – одна тема! Всё остальное созвучно основным нормам поведения на конференции.
Шаблон оформления тем в этом подфоруме должен быть основан на данных сайта www.metal-archives.com и выглядеть следующим образом:

Группа (Страна) - Стилевые рамки - дискография
Slayer (USA) - Thrash Metal - дискография


В теме допустимо размещение всей информации касающейся данного коллектива: анонсы любых альбомов в любых форматах, запросы любых релизов коллектива (кроме релизов текущего и прошлого годов), обсуждения, обзоры, а в остальном всё как обычно. Уважаем друг друга, не грубим, соблюдаем нормы поведения на конференции, оформляем анонсы и запросы красиво и информативно, что бы модераторы не посчитали их троллингом, и не отправили куда положено, выписав Вам предупреждение или ещё что похуже… Прежде чем что-то запросить или запостить, пользуемся поиском! Пользуемся поиском! ПОЛЬЗУЕМСЯ ПОИСКОМ!!! Так слышно меня?.. :pardon:
Интересного, конструктивного и креативного общения! ;)



Post new topic Reply to topic  [ 105 posts ]  Go to page Previous  1, 2, 3, 4, 5, 6  Next
Author Message
 
PostPosted: 09 Jul 2009 
консэрваторъ
Joined: 11 Aug 2007
Posts: 16557
Lоcаtion: Псков
Age: 44
Name: Сергей
McKagan wrote:
какой интересный пиар сайта торрентс-ру

тут дело как было... хотели мы с Михай через фтп перелить, но чего-то страшно затупило это дело, пришлось через торрентссру... :vic:

_________________
THRASH 'EM ALL


Top
 Profile E-mail  
 
 
PostPosted: 10 Jul 2009 
консэрваторъ
Joined: 11 Aug 2007
Posts: 16557
Lоcаtion: Псков
Age: 44
Name: Сергей
Добавлен настоящй CBR320k рип альбума 1998 The Inside мотаем чуток назад...
viewtopic.php?p=57407#p57407

Опять же просьба, при перезаливке лося на ФО оставить здесь ссыль!

_________________
THRASH 'EM ALL


Top
 Profile E-mail  
 
 
PostPosted: 10 Jul 2009 
дядя Миша
User avatar
Joined: 17 Oct 2008
Posts: 3094
Lоcаtion: USSR
Age: 56
Name: Khy
Quote:
Интересный момент: на диске бонус-трек имеется, а на облоге он не прописан.


Дак это не бонус в обычном виде , точнее сказать это hidden (скрытый) трэк. Это встречается на некоторых альбомах..


Top
 Profile  
 
 
PostPosted: 10 Jul 2009 
консэрваторъ
Joined: 11 Aug 2007
Posts: 16557
Lоcаtion: Псков
Age: 44
Name: Сергей
VARVAAR wrote:
это hidden (скрытый) трэк

почему же он тогда отделён и где пауза (тишина) перед ним? Все хиддены, что мне попадались были в составе последнего трека альбома и с тишиной в паузе... :vic:

_________________
THRASH 'EM ALL


Top
 Profile E-mail  
 
 
PostPosted: 10 Jul 2009 
консэрваторъ
Joined: 11 Aug 2007
Posts: 16557
Lоcаtion: Псков
Age: 44
Name: Сергей
Поскольку дискография полностью не укомплектовалась идём в запросы
viewtopic.php?f=121&t=4801 и пытаемся найти демки (их предположительно всего 2 ;) в отличие от некоторых)

_________________
THRASH 'EM ALL


Top
 Profile E-mail  
 
 
PostPosted: 13 Jul 2009 
дядя Миша
User avatar
Joined: 17 Oct 2008
Posts: 3094
Lоcаtion: USSR
Age: 56
Name: Khy
Personal war 1998 ' the inside' на торренте , скан полный, рип верный, никакого пиара , просто ещё один редкий альбомчик :
http://torrents.ru/forum/viewtopic.php?t=2012201

Благодарность Splatty!


Top
 Profile  
 
 
PostPosted: 14 Jul 2009 
хард н хэвщик (support team)
User avatar
Joined: 02 Jun 2008
Posts: 16880
Lоcаtion: Н.Новгород
Age: 31
Name: Артем
VARVAAR wrote:
никакого пиара

насчет пиара - это была моя шутка


Top
 Profile  
 
 
PostPosted: 30 May 2013 
10cm
User avatar
Joined: 12 Jun 2012
Posts: 75
Lоcаtion: Псков
Age: 49
Name: Сергей
Приветствую парни!
Personal War 2000 - Newtimechaos (в лосслесс)с рутрекера с месяц мёртвого не могу взять.Может у кого осталось.У Серёги и Олега ,именно про лоссесс мыслишки проскакивали.Ну я и подумал,вдруг в своё время подлатались!

_________________
надо,и на одной ноге выстоим!


Top
 Profile E-mail  
 
 
PostPosted: 30 May 2013 
Хиппей (support team)
User avatar
Joined: 30 Jul 2007
Posts: 110281
Lоcаtion: Киев (Kyiv, UA)
Age: 45
Name: Andrey
http://rutracker.org/forum/viewtopic.php?t=3630083
Quote:
Полный источник: не было 21 день

Личи:
USERNAME % UL DL UL SPEED DL SPEED
alexCSB 0 - - - -
Monter74 0 - - - -
печ 0 - - - -
ilian 0 - - - -
alexCSB 0 - - - -
spisarev 0 - - - -

Насколько помню, личи это типа китайская слива, только красная и в прыщах... :cry:

На днях у себя лосика пошуршу.

_________________


Top
 Profile E-mail  
 
 
PostPosted: 31 May 2013 
консэрваторъ
Joined: 11 Aug 2007
Posts: 16557
Lоcаtion: Псков
Age: 44
Name: Сергей
Так-то цд у Михаила... не помню по каким причинам схряпали его раздачу на РТ, а у Гоши, если верить описанию свой рип... ну могабыть могабыть... а вообще давно пора кому-нибудь зарелизить дискографию в лосятине... такая бы раздача на долгие лета поселилась бы... ну по крайней мере пока депутат не доберётся... :smile:

_________________
THRASH 'EM ALL


Top
 Profile E-mail  
 
 
PostPosted: 31 May 2013 
10cm
User avatar
Joined: 12 Jun 2012
Posts: 75
Lоcаtion: Псков
Age: 49
Name: Сергей
Ох ,пошурши ,Андрей ,пошурши!Смысл пословицы:"висит груша-нельзя скушать"как никогда становится актуальным!
А то даже Ilijan c MMT в личах томится! Видать,действительно ,редкий для лосслесс ,альбом!

_________________
надо,и на одной ноге выстоим!


Top
 Profile E-mail  
 
 
PostPosted: 31 May 2013 
Генеральный thrasher
User avatar
Joined: 03 Oct 2008
Posts: 3592
Lоcаtion: Ханты-Мансийский АО
Age: 43
Name: Сергей
Товарищ pisarevs,я по твоей просьбе залил на forum.darksage,где ты оставлял подобную просьбу...Дублирую сюда

The Inside

Newtimechaos


Top
 Profile  
 
 
PostPosted: 31 May 2013 
10cm
User avatar
Joined: 12 Jun 2012
Posts: 75
Lоcаtion: Псков
Age: 49
Name: Сергей
Тёзка ,спасибо! :thanx: Я уже не чаял "нигде" обновления :dash: - поэтому сюда ,как за соломинкой!Тут парни рачительно к хорошим вещам относятся ,особенно к редким! :dance:

_________________
надо,и на одной ноге выстоим!


Top
 Profile E-mail  
 
 
PostPosted: 31 May 2013 
Хиппей (support team)
User avatar
Joined: 30 Jul 2007
Posts: 110281
Lоcаtion: Киев (Kyiv, UA)
Age: 45
Name: Andrey
:thanx: :thanx:

_________________


Top
 Profile E-mail  
 
 
PostPosted: 31 May 2013 
Хиппей (support team)
User avatar
Joined: 30 Jul 2007
Posts: 110281
Lоcаtion: Киев (Kyiv, UA)
Age: 45
Name: Andrey
Personal War - 1998 - The Inside [flac]

Image

mirror: F-Bit l Narod

Format: flac + cue + log + scans

log
EAC extraction logfile from 10. July 2009, 21:13 for CD
Personal War / The Inside

Used drive : _NEC DVD_RW ND-3520A Adapter: 1 ID: 0
Read mode : Secure with NO C2, accurate stream, disable cache
Read offset correction : 48
Overread into Lead-In and Lead-Out : No

Used output format : Internal WAV Routines
44.100 Hz; 16 Bit; Stereo

Other options :
Fill up missing offset samples with silence : Yes
Delete leading and trailing silent blocks : No
Installed external ASPI interface


Range status and errors
Selected range
Filename F:\320 rare\Personal_war_1998_the_inside_[Gernhart RecordsGR-0598-PW]_by_splatty\CDImage.wav

Peak level 100.0 %
Range quality 100.0 %
CRC 4EEDAF5E
Copy OK

No errors occured

End of status report

Лога от лося нинашол внутрях :pardon:
cue
PERFORMER "Personal War"
TITLE "The Inside"
FILE "CDImage.wav" WAVE
TRACK 01 AUDIO
TITLE "The Inside"
PERFORMER "Personal War"
ISRC 000000000000
INDEX 01 00:00:00
TRACK 02 AUDIO
TITLE "D.O.P."
PERFORMER "Personal War"
ISRC 000000000000
INDEX 00 04:28:08
INDEX 01 04:29:68
TRACK 03 AUDIO
TITLE "Between God & Evil"
PERFORMER "Personal War"
ISRC 000000000000
INDEX 00 09:44:25
INDEX 01 09:46:01
TRACK 04 AUDIO
TITLE "Hornet"
PERFORMER "Personal War"
ISRC 000000000000
INDEX 00 14:44:45
INDEX 01 14:46:40
TRACK 05 AUDIO
TITLE "More Than A Puppet"
PERFORMER "Personal War"
ISRC 000000000000
INDEX 00 20:22:67
INDEX 01 20:24:63
TRACK 06 AUDIO
TITLE "One Foot In The Grave"
PERFORMER "Personal War"
ISRC 000000000000
INDEX 00 26:15:09
INDEX 01 26:16:71
TRACK 07 AUDIO
TITLE "Fear Of Death"
PERFORMER "Personal War"
ISRC 000000000000
INDEX 00 31:37:61
INDEX 01 31:39:61
TRACK 08 AUDIO
TITLE "Remembrances"
PERFORMER "Personal War"
ISRC 000000000000
INDEX 00 36:47:45
INDEX 01 36:49:34
TRACK 09 AUDIO
TITLE "Putrefaction Of Mind"
PERFORMER "Personal War"
ISRC 000000000000
INDEX 00 42:11:00
INDEX 01 42:12:66
TRACK 10 AUDIO
TITLE "Conditioned By Time"
PERFORMER "Personal War"
ISRC 000000000000
INDEX 00 47:15:70
INDEX 01 47:17:55
TRACK 11 AUDIO
TITLE "Johnny B."
PERFORMER "Personal War"
ISRC 000000000000
INDEX 00 56:45:03
INDEX 01 56:46:52

_________________


Top
 Profile E-mail  
 
 
PostPosted: 31 May 2013 
Хиппей (support team)
User avatar
Joined: 30 Jul 2007
Posts: 110281
Lоcаtion: Киев (Kyiv, UA)
Age: 45
Name: Andrey
Personal War - 2000 - Newtimechaos [flac]

ImageImage

mirror: F-Bit l Narod

Format: flac + cue + log + covers

log
Отчёт EAC об извлечении, выполненном 30. июля 2009, 18:23 для диска:
Personal War / Newtimechaos

Дисковод: TOSHIBA CD/DVDW SD-R5372 Adapter: 0 ID: 0
Режим чтения: Достоверный (C2: нет, Точный поток: да, Отключение кэша: да)
Коррекция смещения при чтении: 704
Способность читать области Lead-in и Lead-out : Нет

Выходной формат: Внутренние WAV-операции
44.100 Гц; 16 бит; стерео

Другие параметры:
Заполнение пропущенных сэмплов тишиной : Да
Удаление блоков с тишиной в начале и конце : Нет
Установленный внешний ASPI-интерфейс


Характеристики диапазона извлечения и сообщения об ошибках
Выбранный диапазон
Имя файла E:\UPLOAD\Personal War 2000 - Newtimechaos\Personal War - Newtimechaos.wav

Пиковый уровень 100.0 %
Качество диапазона 100.0 %
CRC B9C39FE1
Копирование... OK

Ошибок не произошло

Конец отчёта

cue
REM GENRE "Thrash Metal"
REM DATE 2000
REM DISCID 770C770A
REM COMMENT "ExactAudioCopy v0.95b4"
PERFORMER "Personal War"
TITLE "Newtimechaos"
FILE "Personal War - Newtimechaos.flac" WAVE
TRACK 01 AUDIO
TITLE "Newtimebitch"
PERFORMER "Personal War"
INDEX 01 00:00:00
TRACK 02 AUDIO
TITLE "Questions"
PERFORMER "Personal War"
INDEX 00 03:55:24
INDEX 01 03:57:02
TRACK 03 AUDIO
TITLE "Nothing Remains At All"
PERFORMER "Personal War"
INDEX 00 08:13:68
INDEX 01 08:15:32
TRACK 04 AUDIO
TITLE "Area Black"
PERFORMER "Personal War"
INDEX 00 12:08:11
INDEX 01 12:10:01
TRACK 05 AUDIO
TITLE "The Unknown"
PERFORMER "Personal War"
INDEX 00 18:17:19
INDEX 01 18:19:04
TRACK 06 AUDIO
TITLE "Voices"
PERFORMER "Personal War"
INDEX 00 22:36:41
INDEX 01 22:38:28
TRACK 07 AUDIO
TITLE "Mother Darkness"
PERFORMER "Personal War"
INDEX 00 27:13:03
INDEX 01 27:14:70
TRACK 08 AUDIO
TITLE "Angels"
PERFORMER "Personal War"
INDEX 00 29:57:20
INDEX 01 29:59:12
TRACK 09 AUDIO
TITLE "The Bag Of Bones"
PERFORMER "Personal War"
INDEX 00 36:22:49
INDEX 01 36:24:31
TRACK 10 AUDIO
TITLE "Dying Times"
PERFORMER "Personal War"
INDEX 00 40:15:04
INDEX 01 40:16:58

_________________


Top
 Profile E-mail  
 
 
PostPosted: 31 May 2013 
консэрваторъ
Joined: 11 Aug 2007
Posts: 16557
Lоcаtion: Псков
Age: 44
Name: Сергей
Вот приятно на самом деле наблюдать подобные темы в течение 5 лет!!! :cry:

_________________
THRASH 'EM ALL


Top
 Profile E-mail  
 
 
PostPosted: 31 May 2013 
Хиппей (support team)
User avatar
Joined: 30 Jul 2007
Posts: 110281
Lоcаtion: Киев (Kyiv, UA)
Age: 45
Name: Andrey
Первый пост выносить на каждую страничку?

_________________


Top
 Profile E-mail  
 
 
PostPosted: 31 May 2013 
консэрваторъ
Joined: 11 Aug 2007
Posts: 16557
Lоcаtion: Псков
Age: 44
Name: Сергей
Не не стоит, это я про то как всё конструктивно и позитивно... в целом...

_________________
THRASH 'EM ALL


Top
 Profile E-mail  
 
 
PostPosted: 01 Jun 2013 
10cm
User avatar
Joined: 12 Jun 2012
Posts: 75
Lоcаtion: Псков
Age: 49
Name: Сергей
Вот и грамотно,всё!Прикольно,а заметил сейчас-темка,то древняя

_________________
надо,и на одной ноге выстоим!


Top
 Profile E-mail  
 
Display posts from previous:  Sort by  
Post new topic Reply to topic  [ 105 posts ]  Go to page Previous  1, 2, 3, 4, 5, 6  Next

All times are UTC + 3 hours


Who is online

Users browsing this forum: No registered users and 4 guests


You cannot post new topics in this forum
You cannot reply to topics in this forum
You cannot edit your posts in this forum
You cannot delete your posts in this forum
You cannot post attachments in this forum

Search for:
Яндекс.Метрика
Powered by phpBB © 2000, 2002, 2005, 2007 phpBB Group