\m/ 80's metal \m/

Информационно-аналитический форум "80 см пыли" (In Search We Trust) "У нас никто никуда не спешит"
Me For You - http://me-4u.com
It is currently 18 Dec 2018

All times are UTC + 3 hours

Spoiler
Chat - temporary registration for foreign users (please leave your application here)





Forum rules


Уважаемые пользователи ресурса, друзья, коллеги и гости нашего форума. Данный раздел конференции создан с целью рафинации, и посвящён такому стилевому направлению в музыке, как Thrash Metal во всех его проявлениях и ипостасях, а иногда и переходящему на пограничные стили Speed, Power, Groove, Crossover, MDM и т.п.
Главное правило здесь одно: Одна группа – одна тема! Всё остальное созвучно основным нормам поведения на конференции.
Шаблон оформления тем в этом подфоруме должен быть основан на данных сайта www.metal-archives.com и выглядеть следующим образом:

Группа (Страна) - Стилевые рамки - дискография
Slayer (USA) - Thrash Metal - дискография


В теме допустимо размещение всей информации касающейся данного коллектива: анонсы любых альбомов в любых форматах, запросы любых релизов коллектива (кроме релизов текущего и прошлого годов), обсуждения, обзоры, а в остальном всё как обычно. Уважаем друг друга, не грубим, соблюдаем нормы поведения на конференции, оформляем анонсы и запросы красиво и информативно, что бы модераторы не посчитали их троллингом, и не отправили куда положено, выписав Вам предупреждение или ещё что похуже… Прежде чем что-то запросить или запостить, пользуемся поиском! Пользуемся поиском! ПОЛЬЗУЕМСЯ ПОИСКОМ!!! Так слышно меня?.. :pardon:
Интересного, конструктивного и креативного общения! ;)



Post new topic Reply to topic  [ 22 posts ]  Go to page 1, 2  Next
Author Message
 
PostPosted: 21 Nov 2010 
консэрваторъ
Joined: 11 Aug 2007
Posts: 16334
Lоcаtion: Псков
Age: 44
Name: Сергей
Тема создана по просьбе моего друга Серёги...

Дискография этого финского олдскул трэшевого коллектива насчитывает всего одно демо и два полнометражника, начну с первого альбома...

Divine:Decay - Songs Of The Damned 2001

Image

Label: CD-Maximum (лицензия)
Genre: Thrash metal
Coutry: Finland (Helsinki)
Format: APE + CUE + LOG + txt + Scans
Size: 296 МБ

Track-list:
1. Alone 04:43
2. Divine Decay 04:12
3. Song Of The Damned 04:51
4. Hollow 04:01
5. Dead Calm 04:07
6. Bloodline 03:33
7. F# (Wake Up) [Nuclear Assault Cover] 02:53
8. Kill The Dead 00:16
9. Through My Eyes 04:43
10. Genocide 03:56
Total playing time 37:15

log
Exact Audio Copy V0.99 prebeta 5 from 4. May 2009

EAC extraction logfile from 26. January 2010, 17:37

DIVINE DECAY / Songs Of The Damned

Used drive : Optiarc DVD RW AD-7203A Adapter: 4 ID: 2

Read mode : Secure
Utilize accurate stream : Yes
Defeat audio cache : Yes
Make use of C2 pointers : No

Read offset correction : 48
Overread into Lead-In and Lead-Out : No
Fill up missing offset samples with silence : Yes
Delete leading and trailing silent blocks : No
Null samples used in CRC calculations : Yes
Used interface : Native Win32 interface for Win NT & 2000

Used output format : Monkey's Audio Lossless Encoder
Selected bitrate : Normal Lossless Compression
Quality : High
Add ID3 tag : No
Command line compressor : C:\Program Files\Monkey's Audio\MAC.exe


TOC of the extracted CD

Track | Start | Length | Start sector | End sector
---------------------------------------------------------
1 | 0:00.00 | 4:43.70 | 0 | 21294
2 | 4:43.70 | 4:11.49 | 21295 | 40168
3 | 8:55.44 | 4:50.73 | 40169 | 61991
4 | 13:46.42 | 4:00.52 | 61992 | 80043
5 | 17:47.19 | 4:07.03 | 80044 | 98571
6 | 21:54.22 | 3:33.39 | 98572 | 114585
7 | 25:27.61 | 2:52.28 | 114586 | 127513
8 | 28:20.14 | 0:16.24 | 127514 | 128737
9 | 28:36.38 | 4:43.12 | 128738 | 149974
10 | 33:19.50 | 3:55.49 | 149975 | 167648


Range status and errors

Selected range

Filename L:\DEN@K\MeTaLMaDNeSS\DIVINE DECAY - Songs Of The Damned 2001\DIVINE DECAY - Songs Of The Damned.wav

Peak level 98.8 %
Range quality 100.0 %
Test CRC 9EF4739F
Copy CRC 9EF4739F
Copy OK

No errors occurred


AccurateRip summary

Track 1 not present in database
Track 2 not present in database
Track 3 not present in database
Track 4 not present in database
Track 5 not present in database
Track 6 not present in database
Track 7 not present in database
Track 8 not present in database
Track 9 not present in database
Track 10 not present in database

None of the tracks are present in the AccurateRip database

End of status report

cue
REM GENRE "Thrash metal"
REM DATE 2001
REM DISCID 7C08BB0A
REM COMMENT "ExactAudioCopy v0.99pb5"
PERFORMER "DIVINE DECAY"
TITLE "Songs Of The Damned"
FILE "DIVINE DECAY - Songs Of The Damned.ape" WAVE
TRACK 01 AUDIO
TITLE "Alone"
PERFORMER "DIVINE DECAY"
FLAGS DCP
INDEX 01 00:00:00
TRACK 02 AUDIO
TITLE "Divine Decay"
PERFORMER "DIVINE DECAY"
FLAGS DCP
INDEX 01 04:43:70
TRACK 03 AUDIO
TITLE "Song of the Damned"
PERFORMER "DIVINE DECAY"
FLAGS DCP
INDEX 01 08:55:44
TRACK 04 AUDIO
TITLE "Hollow"
PERFORMER "DIVINE DECAY"
FLAGS DCP
INDEX 01 13:46:42
TRACK 05 AUDIO
TITLE "Dead Calm"
PERFORMER "DIVINE DECAY"
FLAGS DCP
INDEX 01 17:47:19
TRACK 06 AUDIO
TITLE "Bloodline"
PERFORMER "DIVINE DECAY"
FLAGS DCP
INDEX 01 21:54:22
TRACK 07 AUDIO
TITLE "F# (Wake Up)"
PERFORMER "DIVINE DECAY"
FLAGS DCP
INDEX 01 25:27:61
TRACK 08 AUDIO
TITLE "Kill the Dead"
PERFORMER "DIVINE DECAY"
FLAGS DCP
INDEX 01 28:20:14
TRACK 09 AUDIO
TITLE "Through My Eyes"
PERFORMER "DIVINE DECAY"
FLAGS DCP
INDEX 01 28:36:38
TRACK 10 AUDIO
TITLE "Genocide"
PERFORMER "DIVINE DECAY"
FLAGS DCP
INDEX 01 33:19:50

MeTaLMaDNeSS.TeaM
======================= dukem aka den@k ========================
=================== for [MeTaLMaDNeSS.TeaM] ====================
================================================================

EXTRACTOR : Exact Audio Copy 0.99 beta 4
READ MODE : Secure with NO C2, accurate stream, disable cache
CODEC : APE 4.6
CONTENTS : CDImage, CUE sheet, EAC log, complete scans (600 dpi) folder
SOURCE : Osmose Productions / CD-Maximum 2005 (CDM 0304-1744)

================================================================
==== +++ DIVINE DECAY [2001] [CD] Songs Of The Damned +++ =========
================================================================

1. Alone #04:43
2. Divine Decay #04:12
3. Song of the Damned #04:51
4. Hollow #04:01
5. Dead Calm #04:07
6. Bloodline #03:33
7. F# (Wake Up) #02:53
8. Kill the Dead #00:16
9. Through My Eyes #04:43
10. Genocide #03:56
**************************
Total playing time: 37:15

================================================================
========= Please keep it shared ! If you like this album, BUY IT ! =========
================================================================
======= Greetings to all the [MeTaLMaDNeSS.TeaM] members ==========
================================================================


Со спектрами всё в полном порядке...
Рип by dukem aka den@k [MeTaLMaDNeSS.TeaM]...

Narod l MultiUp

PS Большую помощь в появление этого поста оказал мне Саныч, официально заявляю спасибо ему, может быть он 2-ой альбом здесь запостит, ибо он вытянул 2003 быстрее, чем я...

_________________
THRASH 'EM ALL


Last edited by splatty on 22 Nov 2010, edited 1 time in total.

Top
 Profile E-mail  
 
 
PostPosted: 21 Nov 2010 
Хиппей (support team)
User avatar
Joined: 30 Jul 2007
Posts: 108988
Lоcаtion: Киев (Kyiv, UA)
Age: 45
Name: Andrey
Серёг, не успеваю я скачать второй... :oops:

Мож через пару дней смогу заново скачать и залить. - щас немного проблемки с компом мешают.
Да, кста, отслушаешь альбом, отпишись, что играет группа, а то я тож еще не успел оценить, а по паре песен делать вывод не труъ...

_________________


Top
 Profile E-mail  
 
 
PostPosted: 21 Nov 2010 
5cm
User avatar
Joined: 01 Mar 2009
Posts: 61
Name: Сергей
Quote:
Label: Osmose Productions


это лицуха от сд максимум.


Top
 Profile  
 
 
PostPosted: 21 Nov 2010 
Хиппей (support team)
User avatar
Joined: 30 Jul 2007
Posts: 108988
Lоcаtion: Киев (Kyiv, UA)
Age: 45
Name: Andrey
fantafan wrote:
лицуха от сд максимум

Хи... :oops:

_________________


Top
 Profile E-mail  
 
 
PostPosted: 22 Nov 2010 
консэрваторъ
Joined: 11 Aug 2007
Posts: 16334
Lоcаtion: Псков
Age: 44
Name: Сергей
fantafan wrote:
лицуха от сд максимум

да...

_________________
THRASH 'EM ALL


Top
 Profile E-mail  
 
 
PostPosted: 22 Nov 2010 
Пионэръ
Joined: 27 Aug 2008
Posts: 16
Lоcаtion: Новгород
Age: 47
Name: Сергей
Огромное спасибо Splatty за старания. Что же играет эта группа ?
Приведу цитату с rutracker http://rutracker.org/forum/viewtopic.php?t=787949
Финская попытка возродить старый калифорнийский трэш - здесь даже есть кавер на Nuclear Assault. В принципе, достаточно успешная. Вокалист - нечто среднее между Хэтфилдом и Чаком Билли, вполне старомодные риффы без особых изысков облагорожены традиционно качественной скандинавской манерой записывать и умеренной мелодичностью. Слушать, в общем, можно.
От себя отмечу что 2-й альбом более интересен и разнообразен, 2001 год получился у ребят несколько однообразным.
Всем поклонникам классического трэша рекомендую однозначно.


Top
 Profile  
 
 
PostPosted: 22 Nov 2010 
консэрваторъ
Joined: 11 Aug 2007
Posts: 16334
Lоcаtion: Псков
Age: 44
Name: Сергей
Quote:
FreeName
Сообщения: 2
:true: :true: :true: Привет Серёга, счас с Санычем усиленно вынимаем второго лося (2003) из финского загона...

_________________
THRASH 'EM ALL


Top
 Profile E-mail  
 
 
PostPosted: 10 Dec 2010 
Хиппей (support team)
User avatar
Joined: 30 Jul 2007
Posts: 108988
Lоcаtion: Киев (Kyiv, UA)
Age: 45
Name: Andrey
Divine:Decay - 2003 - Maximize the Misery [ape]

Image

Genre: Thrash Metal
Location: Finland
Format: ape+cue+log+scans
Size: 359 Mb


Line-up:
Alec - Vocals, Guitar
Paul - Guitar
Tony - Bass
Patka - Drums

Backing vocals by Divine Decay, Ville Tuomio, Ville Jarvio and Sepi Seppala.
Guitar solo on track 4 by Aki "Mayhem" Trygg.
Intro narrated by Bjarki Kaikumo.

There is a hidden track (4:02) after "Black Hearted Angel (Remorse)".


    1. Icons Fall - 01:16
    2. Weave a Web of Vanity - 02:58
    3. Without a Soul - 04:13
    4. Scars - 03:29
    5. Killing Innocence - 05:11
    6. Silence of Decades - 04:09
    7. Maximize the Misery - 04:36
    8. Dead in Me - 03:31
    9. The Discomfort of Artificial Euphoria - 04:09
    10. Filth - 04:12
    11. Black Hearted Angel (Remorse) - 03:43

    TPT: 55:35

MultiUp l Narod

Ripped by KRAGOTH from MMT :thanx:

log
EAC extraction logfile from 11. April 2006, 20:44 for CD
Divine:Decay / Maximize The Misery

Used drive : ATAPI DVD-ROM 16XMax Adapter: 1 ID: 0
Read mode : Secure with NO C2, accurate stream, disable cache
Read offset correction : 12
Overread into Lead-In and Lead-Out : No

Used output format : Internal WAV Routines
44.100 Hz; 16 Bit; Stereo

Other options :
Fill up missing offset samples with silence : Yes
Delete leading and trailing silent blocks : No
Installed external ASPI interface


Range status and errors
Selected range
Filename C:\Documents and Settings\pcx\Bureau\MUSIC MADNESS\DIVINE DECAY - Maximize The Misery.wav

Peak level 100.0 %
Range quality 100.0 %
CRC 5BE057DF
Copy OK

No errors occured

End of status report

cue
PERFORMER "Divine:Decay"
TITLE "Maximize The Misery"
FILE "DIVINE DECAY - Maximize The Misery.APE" WAVE
TRACK 01 AUDIO
TITLE "Icons Fall"
PERFORMER "Divine:Decay"
INDEX 01 00:00:00
TRACK 02 AUDIO
TITLE "Weave A Web Of Vanity"
PERFORMER "Divine:Decay"
INDEX 01 01:16:39
TRACK 03 AUDIO
TITLE "Without A Soul"
PERFORMER "Divine:Decay"
INDEX 01 04:14:10
TRACK 04 AUDIO
TITLE "Scars"
PERFORMER "Divine:Decay"
INDEX 01 08:27:25
TRACK 05 AUDIO
TITLE "Killing Innocence"
PERFORMER "Divine:Decay"
INDEX 01 11:56:42
TRACK 06 AUDIO
TITLE "Silence Of Decades"
PERFORMER "Divine:Decay"
INDEX 01 17:07:58
TRACK 07 AUDIO
TITLE "Maximize The Misery"
PERFORMER "Divine:Decay"
INDEX 01 21:16:51
TRACK 08 AUDIO
TITLE "Dead In Me"
PERFORMER "Divine:Decay"
INDEX 01 25:52:27
TRACK 09 AUDIO
TITLE "The Discomfort Of Artificial Euphoria"
PERFORMER "Divine:Decay"
INDEX 01 29:23:23
TRACK 10 AUDIO
TITLE "Filth"
PERFORMER "Divine:Decay"
INDEX 01 33:32:23
TRACK 11 AUDIO
TITLE "Black Hearted Angel (Remorse)"
PERFORMER "Divine:Decay"
INDEX 01 37:44:01

_________________


Top
 Profile E-mail  
 
 
PostPosted: 10 Dec 2010 
консэрваторъ
Joined: 11 Aug 2007
Posts: 16334
Lоcаtion: Псков
Age: 44
Name: Сергей
:true: Мегатру, скока мы его тянули-то?

_________________
THRASH 'EM ALL


Top
 Profile E-mail  
 
 
PostPosted: 15 Dec 2010 
Хиппей (support team)
User avatar
Joined: 30 Jul 2007
Posts: 108988
Lоcаtion: Киев (Kyiv, UA)
Age: 45
Name: Andrey
Фигню - полторы недели :pardon:

_________________


Top
 Profile E-mail  
 
 
PostPosted: 16 Dec 2010 
консэрваторъ
Joined: 11 Aug 2007
Posts: 16334
Lоcаtion: Псков
Age: 44
Name: Сергей
А где оформление то?

_________________
THRASH 'EM ALL


Top
 Profile E-mail  
 
 
PostPosted: 17 Dec 2010 
Хиппей (support team)
User avatar
Joined: 30 Jul 2007
Posts: 108988
Lоcаtion: Киев (Kyiv, UA)
Age: 45
Name: Andrey
В процессе :fingal:
Надо ж сначала отслушать...

_________________


Top
 Profile E-mail  
 
 
PostPosted: 20 Dec 2010 
Хиппей (support team)
User avatar
Joined: 30 Jul 2007
Posts: 108988
Lоcаtion: Киев (Kyiv, UA)
Age: 45
Name: Andrey
Divine:Decay - 2003 - Maximize the Misery

Ну, прослушал второй альбом. Звук потрясный - под олдскул, и в тоже время - чистый. Вокал в норме, типично трэшевый.
Музыка группы базируется на трёх китах - Sayer, Metallica & Testament. Больше, естественно, склоняется к наработкам Метлы.
Всё. На этом плюсы и закончились.
Полное отсутствие собстсвенных идей, использование задроченных и примитивных риффов и единый темп для всех 11-ти композиций :dash: (или это они ориентировались на название альбома?)
Короче, где хоть одна запоминающаяся мелодия на альбоме? Вы отличите первый трэк от последнего, если оттуда выбросить лирику?
Где вообще соляки, которые можно было бы запомнить хоть с третьей попытки? Ваще, где то, за что мы все любим трэш?
Напор, сплошная стена звуков и... примитив. Ни шага вперёд. Топтание на трёх нотах.
То есть, если убрать из записи вокал, то получим совсем унылое рубилово.

Вот так вот - диваном апстену. Диван икает :( A.R.G. рыдает...
Да, а Machine Head тихонько ржут в сторонке :nunu:

3/10

_________________


Top
 Profile E-mail  
 
 
PostPosted: 20 Dec 2010 
Небесный болтер
User avatar
Joined: 28 Apr 2008
Posts: 2614
Lоcаtion: Верхние Шипки
Age: 35
Name: К. Кастальский
Scatterbrain wrote:
использование задроченных и примитивных риффов и единый темп для всех 11-ти композиций
Короче, где хоть одна запоминающаяся мелодия на альбоме? Вы отличите первый трэк от последнего, если оттуда выбросить лирику?
Где вообще соляки, которые можно было бы запомнить хоть с третьей попытки? Ваще, где то, за что мы все любим трэш?
Напор, сплошная стена звуков и... примитив. Ни шага вперёд. Топтание на трёх нотах.
То есть, если убрать из записи вокал, то получим совсем унылое рубилово.

:true: Это ты прямо про Металлику написал, про их последний альбом


Top
 Profile  
 
 
PostPosted: 20 Dec 2010 
Хиппей (support team)
User avatar
Joined: 30 Jul 2007
Posts: 108988
Lоcаtion: Киев (Kyiv, UA)
Age: 45
Name: Andrey
Кстати, да. Сам того не подозревая... :scratch:
Хорошо помню, что в первой ревьюшке об альбоме Метлы "DM" я очень их перехвалил - типа возврат к корням. А на самом деле... убогое шевеление обрубками веточек :cow:
А вот "Диван Дикий" на фоне той же Металлики даже немного щас выигрывает - у них на альбоме присутствуют иногда культурные бэки :true:

_________________


Top
 Profile E-mail  
 
 
PostPosted: 20 Dec 2010 
Доктор энтомологии
User avatar
Joined: 22 Jan 2009
Posts: 9499
Lоcаtion: Даугавпилс
Age: 43
Name: Алексей
Совсем отвадили с группой ознакомиться :fly:


Top
 Profile  
 
 
PostPosted: 20 Dec 2010 
Хиппей (support team)
User avatar
Joined: 30 Jul 2007
Posts: 108988
Lоcаtion: Киев (Kyiv, UA)
Age: 45
Name: Andrey
Дык, не читайте одностороннее мнение :nunu:

_________________


Top
 Profile E-mail  
 
 
PostPosted: 20 Dec 2010 
консэрваторъ
Joined: 11 Aug 2007
Posts: 16334
Lоcаtion: Псков
Age: 44
Name: Сергей
Scatterbrain wrote:
Короче, где хоть одна запоминающаяся мелодия на альбоме?... Где вообще соляки, которые можно было бы запомнить хоть с третьей попытки?

Если бы это было, то ты бы сразу назвал это попсой, а так "рубилово" - значит олдскул...
Scatterbrain wrote:
убогое шевеление обрубками веточек

ню ню...

_________________
THRASH 'EM ALL


Top
 Profile E-mail  
 
 
PostPosted: 20 Dec 2010 
Небесный болтер
User avatar
Joined: 28 Apr 2008
Posts: 2614
Lоcаtion: Верхние Шипки
Age: 35
Name: К. Кастальский
ню - это то, что делает Металлика. Как в музыкальном, так и в моральном плане :crazy:


Top
 Profile  
 
 
PostPosted: 21 Dec 2010 
консэрваторъ
Joined: 11 Aug 2007
Posts: 16334
Lоcаtion: Псков
Age: 44
Name: Сергей
Глупости...

_________________
THRASH 'EM ALL


Top
 Profile E-mail  
 
Display posts from previous:  Sort by  
Post new topic Reply to topic  [ 22 posts ]  Go to page 1, 2  Next

All times are UTC + 3 hours


Who is online

Users browsing this forum: No registered users and 3 guests


You cannot post new topics in this forum
You cannot reply to topics in this forum
You cannot edit your posts in this forum
You cannot delete your posts in this forum
You cannot post attachments in this forum

Search for:
Яндекс.Метрика
Powered by phpBB © 2000, 2002, 2005, 2007 phpBB Group