\m/ 80's metal \m/

Информационно-аналитический форум "80 см пыли" (In Search We Trust) "У нас никто никуда не спешит"
Me For You - http://me-4u.com
It is currently 17 Jul 2019

All times are UTC + 3 hours

Spoiler
Chat - temporary registration for foreign users (please leave your application here)





Forum rules


Уважаемые пользователи ресурса, друзья, коллеги и гости нашего форума. Данный раздел конференции создан с целью рафинации, и посвящён такому стилевому направлению в музыке, как Thrash Metal во всех его проявлениях и ипостасях, а иногда и переходящему на пограничные стили Speed, Power, Groove, Crossover, MDM и т.п.
Главное правило здесь одно: Одна группа – одна тема! Всё остальное созвучно основным нормам поведения на конференции.
Шаблон оформления тем в этом подфоруме должен быть основан на данных сайта www.metal-archives.com и выглядеть следующим образом:

Группа (Страна) - Стилевые рамки - дискография
Slayer (USA) - Thrash Metal - дискография


В теме допустимо размещение всей информации касающейся данного коллектива: анонсы любых альбомов в любых форматах, запросы любых релизов коллектива (кроме релизов текущего и прошлого годов), обсуждения, обзоры, а в остальном всё как обычно. Уважаем друг друга, не грубим, соблюдаем нормы поведения на конференции, оформляем анонсы и запросы красиво и информативно, что бы модераторы не посчитали их троллингом, и не отправили куда положено, выписав Вам предупреждение или ещё что похуже… Прежде чем что-то запросить или запостить, пользуемся поиском! Пользуемся поиском! ПОЛЬЗУЕМСЯ ПОИСКОМ!!! Так слышно меня?.. :pardon:
Интересного, конструктивного и креативного общения! ;)

Image



Post new topic Reply to topic  [ 57 posts ]  Go to page Previous  1, 2, 3
Author Message
 
PostPosted: 18 Jul 2011 
консэрваторъ
User avatar
Joined: 11 Aug 2007
Posts: 17049
Lоcаtion: Псков
Age: 45
Name: Сергей
Сча скачаем, послушаем, спектры посмотрим...

_________________
THRASH 'EM ALL


Top
 Profile E-mail  
 
 
PostPosted: 18 Jul 2011 
дядя Миша
User avatar
Joined: 17 Oct 2008
Posts: 3150
Lоcаtion: USSR
Age: 56
Name: Khy
splatty
Quote:
А лось может оказаться полноценным и без картинок!


Не , без картинок нето. :fingal:


Top
 Profile  
 
 
PostPosted: 18 Jul 2011 
консэрваторъ
User avatar
Joined: 11 Aug 2007
Posts: 17049
Lоcаtion: Псков
Age: 45
Name: Сергей
На картинки сей релиз не особо богат...

_________________
THRASH 'EM ALL


Top
 Profile E-mail  
 
 
PostPosted: 18 Jul 2011 
консэрваторъ
User avatar
Joined: 11 Aug 2007
Posts: 17049
Lоcаtion: Псков
Age: 45
Name: Сергей
Вобщем вот что там лежит :vic: Спектры флака оттуда, справа от них спектры мп3 псевдо 320, что давно гуляют по сети...

3-я вещь
Image Image

10-ая вещь
Image Image

11-ая вещь
Image Image


Уровень несколько ниже чем на мп3... Если на мп3 явный клиппинг, то здесь вроде слушается нормально... вот для 3-ей вещи например:
mp3 cредняя мощность RMS: лев. -8.61 dB прав. -8.57 dB
flac cредняя мощность RMS: лев. -14.6 dB dB прав. -14.56 dB dB

лог
Exact Audio Copy V0.99 prebeta 5 from 4. May 2009

EAC extraction logfile from 7. June 2011, 4:57

Fueled By Fire / Plunging Into Darkness (2011)

Used drive : HP DVD Writer 1070r Adapter: 1 ID: 1

Read mode : Secure
Utilize accurate stream : Yes
Defeat audio cache : Yes
Make use of C2 pointers : No

Read offset correction : 6
Overread into Lead-In and Lead-Out : No
Fill up missing offset samples with silence : Yes
Delete leading and trailing silent blocks : No
Null samples used in CRC calculations : Yes
Used interface : Native Win32 interface for Win NT & 2000
Gap handling : Appended to previous track

Used output format : Internal WAV Routines
Sample format : 44.100 Hz; 16 Bit; Stereo


TOC of the extracted CD

Track | Start | Length | Start sector | End sector
---------------------------------------------------------
1 | 0:00.00 | 3:05.12 | 0 | 13886
2 | 3:05.12 | 4:08.40 | 13887 | 32526
3 | 7:13.52 | 5:09.22 | 32527 | 55723
4 | 12:22.74 | 2:04.61 | 55724 | 65084
5 | 14:27.60 | 4:12.46 | 65085 | 84030
6 | 18:40.31 | 3:59.27 | 84031 | 101982
7 | 22:39.58 | 1:50.20 | 101983 | 110252
8 | 24:30.03 | 4:25.48 | 110253 | 130175
9 | 28:55.51 | 3:51.38 | 130176 | 147538
10 | 32:47.14 | 4:12.56 | 147539 | 166494
11 | 36:59.70 | 3:31.70 | 166495 | 182389


Track 1

Filename E:\-=EAC Files\Fueled By Fire - Plunging Into Darkness (2011) - 01 - The Arrival.wav

Pre-gap length 0:00:02.00

Peak level 51.2 %
Track quality 100.0 %
Test CRC 087D3639
Copy CRC 087D3639
Track not present in AccurateRip database
Copy OK

Track 2

Filename E:\-=EAC Files\Fueled By Fire - Plunging Into Darkness (2011) - 02 - Rising From Beneath.wav

Peak level 51.2 %
Track quality 100.0 %
Test CRC B0A301DD
Copy CRC B0A301DD
Track not present in AccurateRip database
Copy OK

Track 3

Filename E:\-=EAC Files\Fueled By Fire - Plunging Into Darkness (2011) - 03 - Within The Abyss.wav

Peak level 48.6 %
Track quality 100.0 %
Test CRC 7FE72936
Copy CRC 7FE72936
Track not present in AccurateRip database
Copy OK

Track 4

Filename E:\-=EAC Files\Fueled By Fire - Plunging Into Darkness (2011) - 04 - Unidentified Remains.wav

Peak level 49.8 %
Track quality 100.0 %
Test CRC 17C6B0BF
Copy CRC 17C6B0BF
Track not present in AccurateRip database
Copy OK

Track 5

Filename E:\-=EAC Files\Fueled By Fire - Plunging Into Darkness (2011) - 05 - Plunging Into Darkness.wav

Peak level 49.8 %
Track quality 100.0 %
Test CRC 49A643C8
Copy CRC 49A643C8
Track not present in AccurateRip database
Copy OK

Track 6

Filename E:\-=EAC Files\Fueled By Fire - Plunging Into Darkness (2011) - 06 - Eye Of The Demon.wav

Peak level 49.8 %
Track quality 100.0 %
Test CRC 5196273C
Copy CRC 5196273C
Track not present in AccurateRip database
Copy OK

Track 7

Filename E:\-=EAC Files\Fueled By Fire - Plunging Into Darkness (2011) - 07 - Intro.wav

Peak level 99.9 %
Track quality 99.9 %
Test CRC C721A642
Copy CRC C721A642
Track not present in AccurateRip database
Copy OK

Track 8

Filename E:\-=EAC Files\Fueled By Fire - Plunging Into Darkness (2011) - 08 - Evoke The Curse.wav

Peak level 51.2 %
Track quality 99.9 %
Test CRC 6375809B
Copy CRC 6375809B
Track not present in AccurateRip database
Copy OK

Track 9

Filename E:\-=EAC Files\Fueled By Fire - Plunging Into Darkness (2011) - 09 - Amongst The Dead.wav

Peak level 52.6 %
Track quality 100.0 %
Test CRC 93C27D1C
Copy CRC 93C27D1C
Track not present in AccurateRip database
Copy OK

Track 10

Filename E:\-=EAC Files\Fueled By Fire - Plunging Into Darkness (2011) - 10 - Sickness Of Humanity.wav

Peak level 48.6 %
Track quality 100.0 %
Test CRC 1CA143D8
Copy CRC 1CA143D8
Track not present in AccurateRip database
Copy OK

Track 11

Filename E:\-=EAC Files\Fueled By Fire - Plunging Into Darkness (2011) - 11 - Mass Infestation.wav

Peak level 51.2 %
Track quality 100.0 %
Test CRC 3894C168
Copy CRC 3894C168
Track not present in AccurateRip database
Copy OK


None of the tracks are present in the AccurateRip database

No errors occurred

End of status report

куй
REM GENRE Thrash
REM DATE 2011
REM DISCID 95097F0B
REM COMMENT "ExactAudioCopy v0.99pb5"
CATALOG 0000000000000
PERFORMER "Fueled By Fire"
TITLE "Plunging Into Darkness (2011)"
FILE "Fueled By Fire - Plunging Into Darkness (2011) - 01 - The Arrival.wav" WAVE
TRACK 01 AUDIO
TITLE "The Arrival"
PERFORMER "Fueled By Fire"
INDEX 01 00:00:00
FILE "Fueled By Fire - Plunging Into Darkness (2011) - 02 - Rising From Beneath.wav" WAVE
TRACK 02 AUDIO
TITLE "Rising From Beneath"
PERFORMER "Fueled By Fire"
INDEX 01 00:00:00
FILE "Fueled By Fire - Plunging Into Darkness (2011) - 03 - Within The Abyss.wav" WAVE
TRACK 03 AUDIO
TITLE "Within The Abyss"
PERFORMER "Fueled By Fire"
INDEX 01 00:00:00
FILE "Fueled By Fire - Plunging Into Darkness (2011) - 04 - Unidentified Remains.wav" WAVE
TRACK 04 AUDIO
TITLE "Unidentified Remains"
PERFORMER "Fueled By Fire"
INDEX 01 00:00:00
FILE "Fueled By Fire - Plunging Into Darkness (2011) - 05 - Plunging Into Darkness.wav" WAVE
TRACK 05 AUDIO
TITLE "Plunging Into Darkness"
PERFORMER "Fueled By Fire"
INDEX 01 00:00:00
FILE "Fueled By Fire - Plunging Into Darkness (2011) - 06 - Eye Of The Demon.wav" WAVE
TRACK 06 AUDIO
TITLE "Eye Of The Demon"
PERFORMER "Fueled By Fire"
INDEX 01 00:00:00
FILE "Fueled By Fire - Plunging Into Darkness (2011) - 07 - Intro.wav" WAVE
TRACK 07 AUDIO
TITLE "Intro"
PERFORMER "Fueled By Fire"
INDEX 01 00:00:00
FILE "Fueled By Fire - Plunging Into Darkness (2011) - 08 - Evoke The Curse.wav" WAVE
TRACK 08 AUDIO
TITLE "Evoke The Curse"
PERFORMER "Fueled By Fire"
INDEX 01 00:00:00
FILE "Fueled By Fire - Plunging Into Darkness (2011) - 09 - Amongst The Dead.wav" WAVE
TRACK 09 AUDIO
TITLE "Amongst The Dead"
PERFORMER "Fueled By Fire"
INDEX 01 00:00:00
FILE "Fueled By Fire - Plunging Into Darkness (2011) - 10 - Sickness Of Humanity.wav" WAVE
TRACK 10 AUDIO
TITLE "Sickness Of Humanity"
PERFORMER "Fueled By Fire"
INDEX 01 00:00:00
FILE "Fueled By Fire - Plunging Into Darkness (2011) - 11 - Mass Infestation.wav" WAVE
TRACK 11 AUDIO
TITLE "Mass Infestation"
PERFORMER "Fueled By Fire"
INDEX 01 00:00:00


Вобщем, если кому этот :esel: нужон, пишем...

_________________
THRASH 'EM ALL


Top
 Profile E-mail  
 
 
PostPosted: 18 Jul 2011 
Прокъмитолист
User avatar
Joined: 12 Aug 2007
Posts: 6574
Lоcаtion: Санктъ-Петербуркъ
Age: 51
Name: Олекъ
спектры разочаровывают, конечно... но все же лучше такой лось, чем никакого. так что я "за" :losik:

_________________
прокъметол - это музыко, от которово есть прок (ы)


Top
 Profile  
 
 
PostPosted: 18 Jul 2011 
дядя Миша
User avatar
Joined: 17 Oct 2008
Posts: 3150
Lоcаtion: USSR
Age: 56
Name: Khy
http://www.cmdistro.com/Item/Fueled_By_Fire_-_Plunging_Into_Darkness_-CD+Shirt_Bundle-/PKG000673

Может купим комплектик? И лося сделаем! Майку Андрюшке отдадим - пусть пофорсит. Размеры маловатые там.


Top
 Profile  
 
 
PostPosted: 18 Jul 2011 
консэрваторъ
User avatar
Joined: 11 Aug 2007
Posts: 17049
Lоcаtion: Псков
Age: 45
Name: Сергей
Похоже Фэстер ещё комплектиков наштамповала... Мужики, я пас пока с покупками, в августе расскажу почему... эээ наверное даже надолго пас... может до конца года... вобщем не справшивайте меня пока ни о чём... Лося этого завтра закину на народ...

_________________
THRASH 'EM ALL


Top
 Profile E-mail  
 
 
PostPosted: 18 Jul 2011 
Хиппей (support team)
User avatar
Joined: 30 Jul 2007
Posts: 113509
Lоcаtion: Киев (Kyiv, UA)
Age: 46
Name: Andrey
VARVAAR wrote:
Майку Андрюшке отдадим - пусть пофорсит. Размеры маловатые там.

Нафиг, нафиг :yyy: , меня в неё два влезет :cow:

_________________


Top
 Profile E-mail  
 
 
PostPosted: 18 Jul 2011 
дядя Миша
User avatar
Joined: 17 Oct 2008
Posts: 3150
Lоcаtion: USSR
Age: 56
Name: Khy
Scatterbrain


Ну и ходи в своём "Шахтёре" . :blum:


Top
 Profile  
 
 
PostPosted: 18 Jul 2011 
Хиппей (support team)
User avatar
Joined: 30 Jul 2007
Posts: 113509
Lоcаtion: Киев (Kyiv, UA)
Age: 46
Name: Andrey
В "Арсенале" :true: Майке уже 17 лет, если что. А эта облезет после первой стирки.

А вот чей это лэйбл? - "Annialation Records" :vic:

_________________


Top
 Profile E-mail  
 
 
PostPosted: 19 Jul 2011 
консэрваторъ
User avatar
Joined: 11 Aug 2007
Posts: 17049
Lоcаtion: Псков
Age: 45
Name: Сергей
Scatterbrain wrote:
чей это лэйбл?

Кошмар :shok: а страничку назад перелестнуть не судьба?

Вобщем лось by Soylent Green в этом стойле... Помоему куй кривой, экстрактор заругался :vic:

_________________
THRASH 'EM ALL


Top
 Profile E-mail  
 
 
PostPosted: 19 Jul 2011 
Хиппей (support team)
User avatar
Joined: 30 Jul 2007
Posts: 113509
Lоcаtion: Киев (Kyiv, UA)
Age: 46
Name: Andrey
splatty wrote:
а страничку назад перелестнуть не судьба?

Лень :pardon:
Ок, догадываюсь, что лэйбл принадлежит самой группе. Вернее, её намагерше? :vic:
Или я не прав, и это действительно звукозаписывающая и издающая компания со своим каталогом? :oops:

Кстати, это http://www.facebook.com/AnnihilationMGMT чего такое?

_________________


Top
 Profile E-mail  
 
 
PostPosted: 19 Jul 2011 
консэрваторъ
User avatar
Joined: 11 Aug 2007
Posts: 17049
Lоcаtion: Псков
Age: 45
Name: Сергей
Scatterbrain wrote:
это http://www.facebook.com/AnnihilationMGMT чего такое?

Хрень какая-то перуанская...

А так анниаляция (буква гхэ пропущена спецом) менеджмент - это тётушка Фэнстер. Она 2 группы менеджерует и издаёт своими силами на своём лэйбле...
http://www.myspace.com/annialation-managment

_________________
THRASH 'EM ALL


Last edited by splatty on 19 Jul 2011, edited 2 times in total.

Top
 Profile E-mail  
 
 
PostPosted: 19 Jul 2011 
Хиппей (support team)
User avatar
Joined: 30 Jul 2007
Posts: 113509
Lоcаtion: Киев (Kyiv, UA)
Age: 46
Name: Andrey
Аа... теперь понял. Ну, удачи ей.

_________________


Top
 Profile E-mail  
 
 
PostPosted: 19 Jul 2011 
консэрваторъ
User avatar
Joined: 11 Aug 2007
Posts: 17049
Lоcаtion: Псков
Age: 45
Name: Сергей
Точнее три группы уже...
Фотка симпатишная...

Image

_________________
THRASH 'EM ALL


Top
 Profile E-mail  
 
 
PostPosted: 19 Jul 2011 
Прокъмитолист
User avatar
Joined: 12 Aug 2007
Posts: 6574
Lоcаtion: Санктъ-Петербуркъ
Age: 51
Name: Олекъ
спасибо, Серёг! :thanx: :true:

_________________
прокъметол - это музыко, от которово есть прок (ы)


Top
 Profile  
 
 
PostPosted: 04 Aug 2013 
консэрваторъ
User avatar
Joined: 11 Aug 2007
Posts: 17049
Lоcаtion: Псков
Age: 45
Name: Сергей
А тем временем чётко по графику (не то что раньше...) 26 июля на австрийском лэйбле NoiseArt Records вышел новый альбом...

2013 Trapped In Perdition

Image

1. Catastrophe 04:32
2. Suffering Entities 03:57
3. Forsaken Deity 04:21
4. Profane Path 04:30
5. Deface Mortality 04:38
6. Rotten Creation 04:01
7. Pharmaceutical Extermination 04:11
8. Symbolic Slaying 03:16
9. Obliteration 04:37
10. Abeyant Future (Outro) 02:19
11. Depiction of Demise (Bonus) 04:09

Сначала показалось скучновато, но вот с 6-ой композиции начал проникаться... Добротный такой трэшачок вышел в меру интенсивный, более зрелый...

Fueled By Fire - Rotten Creation | +
phpBB [youtube]

Полная дискография есть на рутракторе, в том числе крайний альбом... в том числе в лосе...

_________________
THRASH 'EM ALL


Top
 Profile E-mail  
 
Display posts from previous:  Sort by  
Post new topic Reply to topic  [ 57 posts ]  Go to page Previous  1, 2, 3

All times are UTC + 3 hours


Who is online

Users browsing this forum: No registered users and 1 guest


You cannot post new topics in this forum
You cannot reply to topics in this forum
You cannot edit your posts in this forum
You cannot delete your posts in this forum
You cannot post attachments in this forum

Search for:
Яндекс.Метрика
Powered by phpBB © 2000, 2002, 2005, 2007 phpBB Group