\m/ 80's metal \m/

Информационно-аналитический форум "80 см пыли" (In Search We Trust) "У нас никто никуда не спешит"
Me For You - http://me-4u.com
It is currently 17 Dec 2018

All times are UTC + 3 hours

Spoiler
Chat - temporary registration for foreign users (please leave your application here)





Forum rules


Уважаемые пользователи ресурса, друзья, коллеги и гости нашего форума. Данный раздел конференции создан с целью рафинации, и посвящён такому стилевому направлению в музыке, как Thrash Metal во всех его проявлениях и ипостасях, а иногда и переходящему на пограничные стили Speed, Power, Groove, Crossover, MDM и т.п.
Главное правило здесь одно: Одна группа – одна тема! Всё остальное созвучно основным нормам поведения на конференции.
Шаблон оформления тем в этом подфоруме должен быть основан на данных сайта www.metal-archives.com и выглядеть следующим образом:

Группа (Страна) - Стилевые рамки - дискография
Slayer (USA) - Thrash Metal - дискография


В теме допустимо размещение всей информации касающейся данного коллектива: анонсы любых альбомов в любых форматах, запросы любых релизов коллектива (кроме релизов текущего и прошлого годов), обсуждения, обзоры, а в остальном всё как обычно. Уважаем друг друга, не грубим, соблюдаем нормы поведения на конференции, оформляем анонсы и запросы красиво и информативно, что бы модераторы не посчитали их троллингом, и не отправили куда положено, выписав Вам предупреждение или ещё что похуже… Прежде чем что-то запросить или запостить, пользуемся поиском! Пользуемся поиском! ПОЛЬЗУЕМСЯ ПОИСКОМ!!! Так слышно меня?.. :pardon:
Интересного, конструктивного и креативного общения! ;)



Post new topic Reply to topic  [ 60 posts ]  Go to page Previous  1, 2, 3  Next
Author Message
 
PostPosted: 06 Oct 2017 
Рарник и трушник
User avatar
Joined: 25 Dec 2009
Posts: 8482
Lоcаtion: Москва
Age: 53
Name: Виталий
splatty wrote:
Цитата:
(収録予定曲、日本盤ボーナス曲追加収録予定)

Серёг, переведи пожалуйста! :pardon:

Спасибо за сцыли, но там сидов почти нигде нету. :pardon:


Top
 Profile  
 
 
PostPosted: 06 Oct 2017 
консэрваторъ
Joined: 11 Aug 2007
Posts: 16329
Lоcаtion: Псков
Age: 44
Name: Сергей
Image

Виталий поставь торренты хоть на сутки на закачку, сиды появятся, я не сомневаюсь... есть ещё и зеркала с сидами... 7tor.org например...
Если не получится попробую подмогнуть с 7-ым годом...

_________________
THRASH 'EM ALL


Top
 Profile E-mail  
 
 
PostPosted: 06 Oct 2017 
Рарник и трушник
User avatar
Joined: 25 Dec 2009
Posts: 8482
Lоcаtion: Москва
Age: 53
Name: Виталий
Спасиб, понял, насчёт зеркал с сидами чота не знал. :thanx:


Top
 Profile  
 
 
PostPosted: 06 Oct 2017 
консэрваторъ
Joined: 11 Aug 2007
Posts: 16329
Lоcаtion: Псков
Age: 44
Name: Сергей
:arrov: viewtopic.php?p=267416#p267416

_________________
THRASH 'EM ALL


Top
 Profile E-mail  
 
 
PostPosted: 06 Oct 2017 
Хиппей (support team)
User avatar
Joined: 30 Jul 2007
Posts: 108950
Lоcаtion: Киев (Kyiv, UA)
Age: 45
Name: Andrey
splatty wrote:

:thanx: Качну тоже, абы перезалить...

_________________


Top
 Profile E-mail  
 
 
PostPosted: 06 Oct 2017 
Рарник и трушник
User avatar
Joined: 25 Dec 2009
Posts: 8482
Lоcаtion: Москва
Age: 53
Name: Виталий
Ожило! :true:


Top
 Profile  
 
 
PostPosted: 06 Oct 2017 
Хиппей (support team)
User avatar
Joined: 30 Jul 2007
Posts: 108950
Lоcаtion: Киев (Kyiv, UA)
Age: 45
Name: Andrey
Скачалось давно уж :pardon:

_________________


Top
 Profile E-mail  
 
 
PostPosted: 07 Oct 2017 
Рарник и трушник
User avatar
Joined: 25 Dec 2009
Posts: 8482
Lоcаtion: Москва
Age: 53
Name: Виталий
Серёг, а чо они в косухах-то? Понтуются шоле? Срочно списывайся, скажи шоб больше так не делали и перфоткались, атож некоторым сладеньким не нравиться. :pardon:
И ваще ещё: косухи - это удел баб. :pardon: :muh: :oldman: :primaD:
ImageImage

ЗЫ. А команда очень понравилась, особенно альбом 2012! :true:


Top
 Profile  
 
 
PostPosted: 09 Oct 2017 
Хиппей (support team)
User avatar
Joined: 30 Jul 2007
Posts: 108950
Lоcаtion: Киев (Kyiv, UA)
Age: 45
Name: Andrey
Попросил снять косухи и зафоткаться в нормальных костюмах.

Image

_________________


Top
 Profile E-mail  
 
 
PostPosted: 09 Oct 2017 
Рарник и трушник
User avatar
Joined: 25 Dec 2009
Posts: 8482
Lоcаtion: Москва
Age: 53
Name: Виталий
Нудык вотвить, итить, йохерит, совсем другой коленкор, сладеньким понравится. :true: :benya:


Top
 Profile  
 
 
PostPosted: 11 Oct 2017 
Хиппей (support team)
User avatar
Joined: 30 Jul 2007
Posts: 108950
Lоcаtion: Киев (Kyiv, UA)
Age: 45
Name: Andrey
Начал слушать альбом 2007 года..
Сразу вспомнился ранний Annihilator +... Megadeth :scratch:

_________________


Top
 Profile E-mail  
 
 
PostPosted: 11 Oct 2017 
Хиппей (support team)
User avatar
Joined: 30 Jul 2007
Posts: 108950
Lоcаtion: Киев (Kyiv, UA)
Age: 45
Name: Andrey
Savage Messiah - 2007 - Spitting Venom [flacs]

Image

mirror: Depos l Narod l M-Cloud l Drop

Как-то полдня слушаю альбом, но всё больше фоном.
Мощная музыка, задушевная местами, качественная очень, но.. вот без хитов такое меня не цепляет :(
Оценку поставлю достаточно высокую, но чисто за профессионализм и подачу материала.

7/10

Чую, что и остальные альбомы ничуть не изменятся в музыкальном плане...

cue
REM GENRE "Thrash Metal"
REM DATE 2007
REM DISCID 69078608
REM COMMENT "ExactAudioCopy v1.0b3"
CATALOG 5060080790821
PERFORMER "Savage Messiah"
TITLE "Spitting Venom"
FILE "01 - Spitting Venom.wav" WAVE
TRACK 01 AUDIO
TITLE "Spitting Venom"
PERFORMER "Savage Messiah"
FLAGS DCP
INDEX 01 00:00:00
FILE "02 - Frontline.wav" WAVE
TRACK 02 AUDIO
TITLE "Frontline"
PERFORMER "Savage Messiah"
FLAGS DCP
INDEX 01 00:00:00
FILE "03 - Servant To Your Death.wav" WAVE
TRACK 03 AUDIO
TITLE "Servant To Your Death"
PERFORMER "Savage Messiah"
FLAGS DCP
INDEX 01 00:00:00
FILE "04 - Heavens Gate.wav" WAVE
TRACK 04 AUDIO
TITLE "Heavens Gate"
PERFORMER "Savage Messiah"
FLAGS DCP
INDEX 01 00:00:00
FILE "05 - W.D.U..wav" WAVE
TRACK 05 AUDIO
TITLE "W.D.U."
PERFORMER "Savage Messiah"
FLAGS DCP
INDEX 01 00:00:00
FILE "06 - Conspiracy In Silence.wav" WAVE
TRACK 06 AUDIO
TITLE "Conspiracy In Silence"
PERFORMER "Savage Messiah"
FLAGS DCP
INDEX 01 00:00:00
FILE "07 - In for the Kill.wav" WAVE
TRACK 07 AUDIO
TITLE "In for the Kill"
PERFORMER "Savage Messiah"
FLAGS DCP
INDEX 01 00:00:00
FILE "08 - In Cold Blood.wav" WAVE
TRACK 08 AUDIO
TITLE "In Cold Blood"
PERFORMER "Savage Messiah"
FLAGS DCP
INDEX 01 00:00:00

_________________


Top
 Profile E-mail  
 
 
PostPosted: 11 Oct 2017 
Хиппей (support team)
User avatar
Joined: 30 Jul 2007
Posts: 108950
Lоcаtion: Киев (Kyiv, UA)
Age: 45
Name: Andrey
Savage Messiah - 2009 - Insurrection Rising [flac]

Image

mirror: Depos l Narod l M-Cloud l Drop

Вах! :lob: :lob: :lob:
Музыка помощнела, потяжелела, стала упругой и одновременно более понятной, хоть и ломанной :meloman: Плюс, наконец-то нужные скорости добавились :true: :true: :true:

8/10

Этот сразу в топы :kro:

log
Exact Audio Copy V0.99 prebeta 5 from 4. May 2009

EAC extraction logfile from 10. August 2010, 16:29

Savage Messiah / Insurrection Rising

Used drive : NEC - DVD+-RW ND-6650A Adapter: 0 ID: 1

Read mode : Secure
Utilize accurate stream : Yes
Defeat audio cache : Yes
Make use of C2 pointers : No

Read offset correction : 48
Overread into Lead-In and Lead-Out : No
Fill up missing offset samples with silence : Yes
Delete leading and trailing silent blocks : No
Null samples used in CRC calculations : Yes
Used interface : Native Win32 interface for Win NT & 2000

Used output format : Internal WAV Routines
Sample format : 44.100 Hz; 16 Bit; Stereo


TOC of the extracted CD

Track | Start | Length | Start sector | End sector
---------------------------------------------------------
1 | 0:00.00 | 3:51.44 | 0 | 17368
2 | 3:51.44 | 4:13.22 | 17369 | 36365
3 | 8:04.66 | 6:15.10 | 36366 | 64500
4 | 14:20.01 | 4:16.10 | 64501 | 83710
5 | 18:36.11 | 5:09.57 | 83711 | 106942
6 | 23:45.68 | 4:26.64 | 106943 | 126956
7 | 28:12.57 | 5:39.25 | 126957 | 152406
8 | 33:52.07 | 3:59.64 | 152407 | 170395
9 | 37:51.71 | 5:34.19 | 170396 | 195464


Range status and errors

Selected range

Filename D:\Music\Temp\Savage Messiah - Insurrection Rising.wav

Peak level 99.9 %
Range quality 100.0 %
Test CRC A05D74D7
Copy CRC A05D74D7
Copy OK

No errors occurred


AccurateRip summary

Track 1 accurately ripped (confidence 1) [AB2B933B]
Track 2 accurately ripped (confidence 1) [B9E763F8]
Track 3 accurately ripped (confidence 1) [36D852BA]
Track 4 accurately ripped (confidence 1) [2068A47C]
Track 5 accurately ripped (confidence 1) [4B7DD9A3]
Track 6 accurately ripped (confidence 1) [9F089F60]
Track 7 accurately ripped (confidence 1) [9FC5AD35]
Track 8 accurately ripped (confidence 1) [DF418717]
Track 9 accurately ripped (confidence 1) [45A6BCE9]

All tracks accurately ripped

End of status report

cue
REM GENRE "Thrash Metal"
REM DATE 2009
REM DISCID 700A2E09
REM COMMENT "ExactAudioCopy v0.99pb5"
PERFORMER "Savage Messiah"
TITLE "Insurrection Rising"
FILE "Savage Messiah - Insurrection Rising.flac" WAVE
TRACK 01 AUDIO
TITLE "Insurrection Rising"
PERFORMER "Savage Messiah"
INDEX 01 00:00:00
TRACK 02 AUDIO
TITLE "Corruption X"
PERFORMER "Savage Messiah"
INDEX 01 03:51:44
TRACK 03 AUDIO
TITLE "In Absence Of Liberty"
PERFORMER "Savage Messiah"
INDEX 01 08:04:66
TRACK 04 AUDIO
TITLE "The Serpent Tongue Of Divinity"
PERFORMER "Savage Messiah"
INDEX 01 14:20:01
TRACK 05 AUDIO
TITLE "Vigil Of The Navigator"
PERFORMER "Savage Messiah"
INDEX 01 18:36:11
TRACK 06 AUDIO
TITLE "Enemy Image (Dehumanization)"
PERFORMER "Savage Messiah"
INDEX 01 23:45:68
TRACK 07 AUDIO
TITLE "Silent Empire"
PERFORMER "Savage Messiah"
INDEX 01 28:12:57
TRACK 08 AUDIO
TITLE "The Nihilist Machine"
PERFORMER "Savage Messiah"
INDEX 01 33:52:07
TRACK 09 AUDIO
TITLE "He Who Laughs Last"
PERFORMER "Savage Messiah"
INDEX 01 37:51:71

_________________


Top
 Profile E-mail  
 
 
PostPosted: 12 Oct 2017 
Рарник и трушник
User avatar
Joined: 25 Dec 2009
Posts: 8482
Lоcаtion: Москва
Age: 53
Name: Виталий
2012 послушай.


Top
 Profile  
 
 
PostPosted: 12 Oct 2017 
Хиппей (support team)
User avatar
Joined: 30 Jul 2007
Posts: 108950
Lоcаtion: Киев (Kyiv, UA)
Age: 45
Name: Andrey
Ага, все послушаю, как обычно. Но уже завтра.
Я ща репчег слушаю, отдыхаю :meloman: https://www.youtube.com/watch?v=0MQNSyJ0IzE

_________________


Top
 Profile E-mail  
 
 
PostPosted: 12 Oct 2017 
Хиппей (support team)
User avatar
Joined: 30 Jul 2007
Posts: 108950
Lоcаtion: Киев (Kyiv, UA)
Age: 45
Name: Andrey
Savage Messiah - 2012 - Plague Of Conscience [ape]

Image ImageImage

mirror: Depos l Narod l M-Cloud l Drop

Музыка снова чуть облегчала и.. стало зверски разнообразной и хитовой :lob: :lob: :lob:

По ходу, этот альбом окажется в топах тоже. Прослушал лишь половину, а уже порват такой музыкой :meloman: :true: :true: :true:

зы. В общем, альбом мощен, одновременно мелодичен, хитов и весел :kro: Местами даже прогрессивен. А так ЮС-павер мощный, но уже почти без заходов в трэш.

Дальше и не знаю, чего ожидать от следующей работы

8+/10

Image Image Image

log
Exact Audio Copy V0.99 prebeta 5 from 4. May 2009

EAC extraction logfile from 6. March 2012, 16:16

Savage Messiah / Plague Of Conscience

Used drive : Optiarc DVD RW AD-5260S Adapter: 3 ID: 0

Read mode : Secure
Utilize accurate stream : Yes
Defeat audio cache : Yes
Make use of C2 pointers : No

Read offset correction : 48
Overread into Lead-In and Lead-Out : No
Fill up missing offset samples with silence : Yes
Delete leading and trailing silent blocks : No
Null samples used in CRC calculations : Yes
Used interface : Installed external ASPI interface

Used output format : Internal WAV Routines
Sample format : 44.100 Hz; 16 Bit; Stereo


TOC of the extracted CD

Track | Start | Length | Start sector | End sector
---------------------------------------------------------
1 | 0:00.00 | 5:32.01 | 0 | 24900
2 | 5:32.01 | 5:01.58 | 24901 | 47533
3 | 10:33.59 | 6:01.66 | 47534 | 74674
4 | 16:35.50 | 4:36.22 | 74675 | 95396
5 | 21:11.72 | 5:09.26 | 95397 | 118597
6 | 26:21.23 | 4:09.40 | 118598 | 137312
7 | 30:30.63 | 5:13.58 | 137313 | 160845
8 | 35:44.46 | 4:04.42 | 160846 | 179187
9 | 39:49.13 | 4:51.06 | 179188 | 201018
10 | 44:40.19 | 8:38.65 | 201019 | 239933


Range status and errors

Selected range

Filename C:\Savage Messiah - Plague Of Conscience.wav

Peak level 99.2 %
Range quality 99.9 %
Copy CRC DDA9DFC5
Copy OK

No errors occurred


AccurateRip summary

Track 1 not present in database
Track 2 not present in database
Track 3 not present in database
Track 4 not present in database
Track 5 not present in database
Track 6 not present in database
Track 7 not present in database
Track 8 not present in database
Track 9 not present in database
Track 10 not present in database

None of the tracks are present in the AccurateRip database

End of status report

cue
REM GENRE "Thrash Metal"
REM DATE 2012
REM DISCID 8D0C7F0A
REM COMMENT "ExactAudioCopy v0.99pb5"
PERFORMER "Savage Messiah"
TITLE "Plague Of Conscience"
FILE "Savage Messiah - Plague Of Conscience.ape" WAVE
TRACK 01 AUDIO
TITLE "Plague Of Conscience"
PERFORMER "Savage Messiah"
INDEX 01 00:00:00
TRACK 02 AUDIO
TITLE "Six Feet Under The Gun"
PERFORMER "Savage Messiah"
INDEX 00 05:30:58
INDEX 01 05:32:01
TRACK 03 AUDIO
TITLE "Carnival Of Souls"
PERFORMER "Savage Messiah"
INDEX 01 10:33:59
TRACK 04 AUDIO
TITLE "In Thought Alone"
PERFORMER "Savage Messiah"
INDEX 00 16:32:74
INDEX 01 16:35:50
TRACK 05 AUDIO
TITLE "All Seeing I"
PERFORMER "Savage Messiah"
INDEX 00 21:11:00
INDEX 01 21:11:72
TRACK 06 AUDIO
TITLE "Beyond A Shadow Of Doubt"
PERFORMER "Savage Messiah"
INDEX 00 26:20:17
INDEX 01 26:21:23
TRACK 07 AUDIO
TITLE "Architects Of Fear"
PERFORMER "Savage Messiah"
INDEX 00 30:29:10
INDEX 01 30:30:63
TRACK 08 AUDIO
TITLE "The Accuser"
PERFORMER "Savage Messiah"
INDEX 00 35:42:32
INDEX 01 35:44:46
TRACK 09 AUDIO
TITLE "Shadowbound"
PERFORMER "Savage Messiah"
INDEX 00 39:47:29
INDEX 01 39:49:13
TRACK 10 AUDIO
TITLE "The Mask Of Anarchy"
PERFORMER "Savage Messiah"
INDEX 00 44:37:31
INDEX 01 44:40:19

_________________


Top
 Profile E-mail  
 
 
PostPosted: 12 Oct 2017 
Рарник и трушник
User avatar
Joined: 25 Dec 2009
Posts: 8482
Lоcаtion: Москва
Age: 53
Name: Виталий
Ну вот, а ты боялась... :pardon:


Top
 Profile  
 
 
PostPosted: 12 Oct 2017 
Хиппей (support team)
User avatar
Joined: 30 Jul 2007
Posts: 108950
Lоcаtion: Киев (Kyiv, UA)
Age: 45
Name: Andrey
По мотивам Дио? :scratch:

Savage Messiah - The Mask Of Anarchy

_________________


Top
 Profile E-mail  
 
 
PostPosted: 12 Oct 2017 
Хиппей (support team)
User avatar
Joined: 30 Jul 2007
Posts: 108950
Lоcаtion: Киев (Kyiv, UA)
Age: 45
Name: Andrey
Стиль почти не изменился у группы, но вот меланхолией повеяло изрядно :(

Savage Messiah - 2014 - The Fateful Dark (Japanese Edition) [flac]

Image Image Image Image

mirror: Depos l Narod l M-Cloud l Drop

Image Image Image

Image Image Image Image

Image Image Image Image

log
Exact Audio Copy V1.0 beta 3 from 29. August 2011

EAC extraction logfile from 26. July 2014, 18:33

Savage Messiah / The Fateful Dark

Used drive : SlimtypeDVD A DS8A5SH Adapter: 0 ID: 1

Read mode : Secure
Utilize accurate stream : Yes
Defeat audio cache : Yes
Make use of C2 pointers : No

Read offset correction : 6
Overread into Lead-In and Lead-Out : No
Fill up missing offset samples with silence : Yes
Delete leading and trailing silent blocks : No
Null samples used in CRC calculations : Yes
Used interface : Native Win32 interface for Win NT & 2000

Used output format : User Defined Encoder
Selected bitrate : 320 kBit/s
Quality : High
Add ID3 tag : No
Command line compressor : C:\Program Files (x86)\Exact Audio Copy\Flac\flac.exe
Additional command line options : -V -8 -T "Date=%year%" -T "Genre=%genre%" %source%


TOC of the extracted CD

Track | Start | Length | Start sector | End sector
---------------------------------------------------------
1 | 0:00.00 | 6:16.37 | 0 | 28236
2 | 6:16.37 | 4:18.17 | 28237 | 47603
3 | 10:34.54 | 4:50.44 | 47604 | 69397
4 | 15:25.23 | 3:59.58 | 69398 | 87380
5 | 19:25.06 | 5:39.64 | 87381 | 112869
6 | 25:04.70 | 6:28.12 | 112870 | 141981
7 | 31:33.07 | 6:32.74 | 141982 | 171455
8 | 38:06.06 | 4:11.67 | 171456 | 190347
9 | 42:17.73 | 5:04.35 | 190348 | 213182
10 | 47:22.33 | 4:58.25 | 213183 | 235557
11 | 52:20.58 | 3:29.27 | 235558 | 251259
12 | 55:50.10 | 4:31.51 | 251260 | 271635
13 | 60:21.61 | 4:10.22 | 271636 | 290407
14 | 64:32.08 | 4:15.56 | 290408 | 309588


Range status and errors

Selected range

Filename D:\My Music\Savage Messiah - 2014 The Fateful Dark (Japanese Edition)\Savage Messiah - The Fateful Dark.wav

Peak level 98.0 %
Extraction speed 5.0 X
Range quality 100.0 %
Test CRC 1E5EF3FC
Copy CRC 1E5EF3FC
Copy OK

No errors occurred


AccurateRip summary

Track 1 not present in database
Track 2 not present in database
Track 3 not present in database
Track 4 not present in database
Track 5 not present in database
Track 6 not present in database
Track 7 not present in database
Track 8 not present in database
Track 9 not present in database
Track 10 not present in database
Track 11 not present in database
Track 12 not present in database
Track 13 not present in database
Track 14 not present in database

None of the tracks are present in the AccurateRip database

End of status report

==== Log checksum 9EF5C60F92C9158C56A1BDA73FCD7E9283ED1F044D1B8DAE729F7F2512B6399A ====

cue
REM GENRE "Power Thrash Metal"
REM DATE 2014
REM DISCID DB101F0E
REM COMMENT "ExactAudioCopy v1.0b3"
CATALOG 4582352381502
PERFORMER "Savage Messiah"
TITLE "The Fateful Dark"
FILE "Savage Messiah - The Fateful Dark.flac" WAVE
TRACK 01 AUDIO
TITLE "Iconocaust"
PERFORMER "Savage Messiah"
INDEX 01 00:00:00
TRACK 02 AUDIO
TITLE "Minority Of One"
PERFORMER "Savage Messiah"
INDEX 01 06:16:37
TRACK 03 AUDIO
TITLE "Cross Of Babylon"
PERFORMER "Savage Messiah"
INDEX 01 10:34:54
TRACK 04 AUDIO
TITLE "Hellblazer"
PERFORMER "Savage Messiah"
INDEX 01 15:25:23
TRACK 05 AUDIO
TITLE "Live As One Already Dead"
PERFORMER "Savage Messiah"
INDEX 01 19:25:06
TRACK 06 AUDIO
TITLE "The Fateful Dark"
PERFORMER "Savage Messiah"
INDEX 01 25:04:70
TRACK 07 AUDIO
TITLE "Zero Hour"
PERFORMER "Savage Messiah"
INDEX 01 31:33:07
TRACK 08 AUDIO
TITLE "Hammered Down"
PERFORMER "Savage Messiah"
INDEX 01 38:06:06
TRACK 09 AUDIO
TITLE "Scavengers Of Mercy"
PERFORMER "Savage Messiah"
INDEX 01 42:17:73
TRACK 10 AUDIO
TITLE "The Cursed Earth"
PERFORMER "Savage Messiah"
INDEX 01 47:22:33
TRACK 11 AUDIO
TITLE "Be Quick Or Be Dead (Iron Maiden cover)"
PERFORMER "Savage Messiah"
INDEX 00 52:11:38
INDEX 01 52:20:58
TRACK 12 AUDIO
TITLE "Lighting To The Nations (Diamond Head cover)"
PERFORMER "Savage Messiah"
INDEX 01 55:50:10
TRACK 13 AUDIO
TITLE "Killers (Motorhead cover)"
PERFORMER "Savage Messiah"
INDEX 01 60:21:61
TRACK 14 AUDIO
TITLE "Of Wolf And Man (Metallica cover)"
PERFORMER "Savage Messiah"
INDEX 01 64:32:08

_________________


Top
 Profile E-mail  
 
 
PostPosted: 12 Oct 2017 
Хиппей (support team)
User avatar
Joined: 30 Jul 2007
Posts: 108950
Lоcаtion: Киев (Kyiv, UA)
Age: 45
Name: Andrey
Savage Messiah - Live As One Already Dead


На отметке 04:20 вроде по-русски говорят? Я пока на биррюлиевых колонках не могу расслышать.
Позже в наушниках оценю.

_________________


Top
 Profile E-mail  
 
Display posts from previous:  Sort by  
Post new topic Reply to topic  [ 60 posts ]  Go to page Previous  1, 2, 3  Next

All times are UTC + 3 hours


Who is online

Users browsing this forum: No registered users and 4 guests


You cannot post new topics in this forum
You cannot reply to topics in this forum
You cannot edit your posts in this forum
You cannot delete your posts in this forum
You cannot post attachments in this forum

Search for:
Яндекс.Метрика
Powered by phpBB © 2000, 2002, 2005, 2007 phpBB Group