\m/ 80's metal \m/

Информационно-аналитический форум "80 см пыли" (In Search We Trust) "У нас никто никуда не спешит"
Me For You - http://me-4u.com
It is currently 19 Dec 2018

All times are UTC + 3 hours

Spoiler
Chat - temporary registration for foreign users (please leave your application here)





Forum rules


Уважаемые пользователи ресурса, друзья, коллеги и гости нашего форума. Данный раздел конференции создан с целью рафинации, и посвящён такому стилевому направлению в музыке, как Thrash Metal во всех его проявлениях и ипостасях, а иногда и переходящему на пограничные стили Speed, Power, Groove, Crossover, MDM и т.п.
Главное правило здесь одно: Одна группа – одна тема! Всё остальное созвучно основным нормам поведения на конференции.
Шаблон оформления тем в этом подфоруме должен быть основан на данных сайта www.metal-archives.com и выглядеть следующим образом:

Группа (Страна) - Стилевые рамки - дискография
Slayer (USA) - Thrash Metal - дискография


В теме допустимо размещение всей информации касающейся данного коллектива: анонсы любых альбомов в любых форматах, запросы любых релизов коллектива (кроме релизов текущего и прошлого годов), обсуждения, обзоры, а в остальном всё как обычно. Уважаем друг друга, не грубим, соблюдаем нормы поведения на конференции, оформляем анонсы и запросы красиво и информативно, что бы модераторы не посчитали их троллингом, и не отправили куда положено, выписав Вам предупреждение или ещё что похуже… Прежде чем что-то запросить или запостить, пользуемся поиском! Пользуемся поиском! ПОЛЬЗУЕМСЯ ПОИСКОМ!!! Так слышно меня?.. :pardon:
Интересного, конструктивного и креативного общения! ;)



Post new topic Reply to topic  [ 52 posts ]  Go to page Previous  1, 2, 3
Author Message
 
PostPosted: 26 Apr 2008 
консэрваторъ
Joined: 11 Aug 2007
Posts: 16336
Lоcаtion: Псков
Age: 44
Name: Сергей
> Осталось найти: | Still looking:
Sekhmet (UK) - Creator of Chaos 2004 (EP)


Прям аж распирает, как хочется познакомить Вас с этими англичанами!.. и вопросить о сборе полной дискографии заодно... :oops: Очень качественный трэш из объединённого королевства...

Image

Состав:
Dave Parsons - Drums
Rohan James - Vocals, Bass
Mike Precious - Guitars, Vocals
Adam Smith - Guitars

Дискография:
2004 Creator Of Chaos (EP)
2005 Desolate Earth (Demo)
2006 Engine Of War (EP)
2007 Last Stand (Full-length)

более подробная информация


Sekhmet (UK) - Last Stand 2007

Image

1. Last Stand 02:49
2. Slaughter the Innocent 05:00
3. Prepare for War 05:46
4. Into the Breach 05:02
5. In Pain 05:14
6. Consumed By Hate 04:31
7. Burn Me 05:31

Total playing time 33:53

ifolder

Ну и конечно же, если кто обладает остальными релизами данного коллектива, просьба здесь енто выложить :thanx:

_________________
THRASH 'EM ALL


Top
 Profile E-mail  
 
 
PostPosted: 07 Jul 2017 
консэрваторъ
Joined: 11 Aug 2007
Posts: 16336
Lоcаtion: Псков
Age: 44
Name: Сергей
Зачем?.. Разве цитат мало?..

_________________
THRASH 'EM ALL


Top
 Profile E-mail  
 
 
PostPosted: 08 Jul 2017 
Хиппей (support team)
User avatar
Joined: 30 Jul 2007
Posts: 109003
Lоcаtion: Киев (Kyiv, UA)
Age: 45
Name: Andrey
Мало. Ты тоже ж не всегда внимателен бываешь.
А вдруг ты переписываешься не с тем музыкантов, или с его котом мммм? :lloo:
И ты точно всю переписку сохраняешь у себя?

_________________


Top
 Profile E-mail  
 
 
PostPosted: 08 Jul 2017 
консэрваторъ
Joined: 11 Aug 2007
Posts: 16336
Lоcаtion: Псков
Age: 44
Name: Сергей
Точно, точно...

_________________
THRASH 'EM ALL


Top
 Profile E-mail  
 
 
PostPosted: 08 Jul 2017 
Хиппей (support team)
User avatar
Joined: 30 Jul 2007
Posts: 109003
Lоcаtion: Киев (Kyiv, UA)
Age: 45
Name: Andrey
Точно, точно...

И на Ютубе и Фэйсбуке?
Напиши мне что-то в личку на Мордобке, плиз.

_________________


Top
 Profile E-mail  
 
 
PostPosted: 08 Jul 2017 
консэрваторъ
Joined: 11 Aug 2007
Posts: 16336
Lоcаtion: Псков
Age: 44
Name: Сергей
Внезапно получил рип ипихи 2006 с дискогса от Алекса Кэролла (Ranulph1998), который он обозначил буквально неделю назад... Ну и пурга жешь эта Ваша заливная рыба оказалась, скажу я Вам, господа... Вообщем послушайте лучше сами, в архиве два варианта, оригинальный рип Алекса в м4а и мой небольшенький ремастер (который запись не спас по итогам :pardon: )...

Sekhmet - Engine Of War 2006 (EP)

Image

1. Power Of The Sands 1:55
2. Sekhmet 3:32
3. Engines Of War 2:28
4. Into The Breach 4:47
5. Baptised In Fire 6:51

YD

_________________
THRASH 'EM ALL


Top
 Profile E-mail  
 
 
PostPosted: 09 Jul 2017 
Хиппей (support team)
User avatar
Joined: 30 Jul 2007
Posts: 109003
Lоcаtion: Киев (Kyiv, UA)
Age: 45
Name: Andrey
Scatterbrain wrote:
Напиши мне что-то в личку на Мордобке, плиз.

:thanx:
Теперь просьба заскринить переписку и сбросить скрин сюда, в аську или в скайп.

_________________


Top
 Profile E-mail  
 
 
PostPosted: 09 Jul 2017 
Хиппей (support team)
User avatar
Joined: 30 Jul 2007
Posts: 109003
Lоcаtion: Киев (Kyiv, UA)
Age: 45
Name: Andrey
splatty wrote:
Sekhmet - Engine Of War 2006 (EP)

:thanx:

_________________


Top
 Profile E-mail  
 
 
PostPosted: 31 Jul 2017 
консэрваторъ
Joined: 11 Aug 2007
Posts: 16336
Lоcаtion: Псков
Age: 44
Name: Сергей
Подарок от Дэйва Парсонса бывшего барабанщика группы... Он отправил диски в Россию в подарок, а Сергей по моей просьбе сделал полноценных лосиков для нас с Вами и иже с ними!.. :true: :meloman: :thanx:

Sekhmet - Engine Of War 2006 (EP) flac
Sekhmet - Desolate Earth 2005 (Demo) flac

По итогам в поиске у нас остаётся только первая ипиха группы, вся надежда на Рохана...

_________________
THRASH 'EM ALL


Top
 Profile E-mail  
 
 
PostPosted: 31 Jul 2017 
Прокъмитолист
User avatar
Joined: 12 Aug 2007
Posts: 6515
Lоcаtion: Санктъ-Петербуркъ
Age: 51
Name: Олекъ
:thanx:

_________________
прокъметол - это музыко, от которово есть прок (ы)


Top
 Profile  
 
 
PostPosted: 24 Mar 2018 
Хиппей (support team)
User avatar
Joined: 30 Jul 2007
Posts: 109003
Lоcаtion: Киев (Kyiv, UA)
Age: 45
Name: Andrey
splatty wrote:
Sekhmet - Engine Of War 2006 (EP) flac
Sekhmet - Desolate Earth 2005 (Demo) flac

:thanx:

_________________


Top
 Profile E-mail  
 
 
PostPosted: 25 Mar 2018 
Хиппей (support team)
User avatar
Joined: 30 Jul 2007
Posts: 109003
Lоcаtion: Киев (Kyiv, UA)
Age: 45
Name: Andrey
Sekhmet - Desolate Earth (demo) [flac]

Image Image

mirror: File7 l Drop l Narod l M-Cloud

Image Image

log
Exact Audio Copy V1.1 from 23. June 2015

Отчёт EAC об извлечении, выполненном 31. июля 2017, 16:22

Sekhmet / Desolate Earth (Demo)

Дисковод: HL-DT-STDVDRAM GTA0N Adapter: 1 ID: 0

Режим чтения : Достоверность
Использование точного потока : Да
Отключение кэша аудио : Да
Использование указателей C2 : Нет

Коррекция смещения при чтении : 102
Способность читать области Lead-in и Lead-out : Нет
Заполнение пропущенных сэмплов тишиной : Да
Удаление блоков с тишиной в начале и конце : Нет
При вычислениях CRC использовались нулевые сэмплы : Да
Интерфейс : Встроенный Win32-интерфейс для Win NT/2000

Выходной формат : Пользовательский кодировщик
Выбранный битрейт : 768 kBit/s
Качество : Высокий
Добавление ID3-тега : Нет
Утилита сжатия : C:\Program Files (x86)\Exact Audio Copy\FLAC\FLAC.EXE
Дополнительные параметры : -V -8 -T "Date=%year%" -T "Genre=%genre%" %source%


TOC извлечённого CD

Трек | Старт | Длительность | Начальный сектор | Конечный сектор
---------------------------------------------------------------------
1 | 0:00.00 | 5:15.23 | 0 | 23647
2 | 5:15.23 | 5:01.33 | 23648 | 46255


Характеристики диапазона извлечения и сообщения об ошибках

Выбранный диапазон

Имя файла C:\Users\магазин\Music\Sekhmet - Desolate Earth (Demo).wav

Пиковый уровень 100.0 %
Скорость извлечения 2.9 X
Качество диапазона 100.0 %
CRC теста 2BF41CDA
CRC копии 2BF41CDA
Копирование... OK

Ошибок не произошло


AccurateRip: сводка

Трек 1 отсутствует в базе данных
Трек 2 отсутствует в базе данных

Ни одного трека нет в базе AccurateRip

Конец отчёта

---- CUETools DB Plugin V2.1.6

[CTDB TOCID: rbLXB_gj3ZXk30WapUIwj7ewKuE-] disk not present in database
Submit result: rbLXB_gj3ZXk30WapUIwj7ewKuE- has been uploaded

cue
REM GENRE "Thrash/Death Metal"
REM DATE 2005
REM DISCID 0D026802
REM COMMENT "ExactAudioCopy v1.1"
PERFORMER "Sekhmet"
TITLE "Desolate Earth (Demo)"
FILE "Sekhmet - Desolate Earth (Demo).flac" WAVE
TRACK 01 AUDIO
TITLE "Desolate Earth"
PERFORMER "Sekhmet"
INDEX 01 00:00:00
TRACK 02 AUDIO
TITLE "Judgement Day"
PERFORMER "Sekhmet"
INDEX 00 05:13:23
INDEX 01 05:15:23


Какой-то Lake Of Tears с примесью трэша во второй песне :cry:

4/10

_________________


Top
 Profile E-mail  
 
 
PostPosted: 25 Mar 2018 
Хиппей (support team)
User avatar
Joined: 30 Jul 2007
Posts: 109003
Lоcаtion: Киев (Kyiv, UA)
Age: 45
Name: Andrey
Sekhmet - Engine Of War (EP) [flac]

Image Image

mirror: Giga l Drop l Narod l M-Cloud

Image Image

Запись хуже чем на демке, зато уже почти трэш нарезают :true: :true: :true:
Хоть и с кучей вставочек смешных.. :vic:

5+/10

log
Exact Audio Copy V1.1 from 23. June 2015

Отчёт EAC об извлечении, выполненном 31. июля 2017, 16:12

Sekhmet / Engine Of War

Дисковод: HL-DT-STDVDRAM GTA0N Adapter: 1 ID: 0

Режим чтения : Достоверность
Использование точного потока : Да
Отключение кэша аудио : Да
Использование указателей C2 : Нет

Коррекция смещения при чтении : 102
Способность читать области Lead-in и Lead-out : Нет
Заполнение пропущенных сэмплов тишиной : Да
Удаление блоков с тишиной в начале и конце : Нет
При вычислениях CRC использовались нулевые сэмплы : Да
Интерфейс : Встроенный Win32-интерфейс для Win NT/2000

Выходной формат : Пользовательский кодировщик
Выбранный битрейт : 768 kBit/s
Качество : Высокий
Добавление ID3-тега : Нет
Утилита сжатия : C:\Program Files (x86)\Exact Audio Copy\FLAC\FLAC.EXE
Дополнительные параметры : -V -8 -T "Date=%year%" -T "Genre=%genre%" %source%


TOC извлечённого CD

Трек | Старт | Длительность | Начальный сектор | Конечный сектор
---------------------------------------------------------------------
1 | 0:00.00 | 1:55.21 | 0 | 8645
2 | 1:55.21 | 3:32.30 | 8646 | 24575
3 | 5:27.51 | 2:28.24 | 24576 | 35699
4 | 7:56.00 | 4:47.21 | 35700 | 57245
5 | 12:43.21 | 6:50.39 | 57246 | 88034


Характеристики диапазона извлечения и сообщения об ошибках

Выбранный диапазон

Имя файла C:\Users\магазин\Music\Sekhmet - Engine Of War.wav

Пиковый уровень 98.8 %
Скорость извлечения 3.2 X
Качество диапазона 100.0 %
CRC теста C3EBA3A4
CRC копии C3EBA3A4
Копирование... OK

Ошибок не произошло


AccurateRip: сводка

Трек 1 отсутствует в базе данных
Трек 2 отсутствует в базе данных
Трек 3 отсутствует в базе данных
Трек 4 отсутствует в базе данных
Трек 5 отсутствует в базе данных

Ни одного трека нет в базе AccurateRip

Конец отчёта

---- CUETools DB Plugin V2.1.6

[CTDB TOCID: LGFSUMT0uPqlJkF.Cm2lFFRXTXA-] disk not present in database
Submit result: LGFSUMT0uPqlJkF.Cm2lFFRXTXA- has been uploaded

cue
REM GENRE "Thrash/Death Metal"
REM DATE 2006
REM DISCID 3E049505
REM COMMENT "ExactAudioCopy v1.1"
PERFORMER "Sekhmet"
TITLE "Engine Of War"
FILE "Sekhmet - Engine Of War.flac" WAVE
TRACK 01 AUDIO
TITLE "Power Of The Sands"
PERFORMER "Sekhmet"
INDEX 01 00:00:00
TRACK 02 AUDIO
TITLE "Sekhmet"
PERFORMER "Sekhmet"
INDEX 00 01:51:60
INDEX 01 01:55:21
TRACK 03 AUDIO
TITLE "Engines Of War"
PERFORMER "Sekhmet"
INDEX 00 05:24:16
INDEX 01 05:27:51
TRACK 04 AUDIO
TITLE "Into The Breach"
PERFORMER "Sekhmet"
INDEX 00 07:52:38
INDEX 01 07:56:00
TRACK 05 AUDIO
TITLE "Baptized In Fire"
PERFORMER "Sekhmet"
INDEX 00 12:38:49
INDEX 01 12:43:21

_________________


Top
 Profile E-mail  
 
Display posts from previous:  Sort by  
Post new topic Reply to topic  [ 52 posts ]  Go to page Previous  1, 2, 3

All times are UTC + 3 hours


Who is online

Users browsing this forum: No registered users and 3 guests


You cannot post new topics in this forum
You cannot reply to topics in this forum
You cannot edit your posts in this forum
You cannot delete your posts in this forum
You cannot post attachments in this forum

Search for:
Яндекс.Метрика
Powered by phpBB © 2000, 2002, 2005, 2007 phpBB Group