\m/ 80's metal \m/

Информационно-аналитический форум "80 см пыли" (In Search We Trust) "У нас никто никуда не спешит"
Me For You - http://me-4u.com
It is currently 17 Dec 2018

All times are UTC + 3 hours

Spoiler
Chat - temporary registration for foreign users (please leave your application here)





Forum rules


Уважаемые пользователи ресурса, друзья, коллеги и гости нашего форума. Данный раздел конференции создан с целью рафинации, и посвящён такому стилевому направлению в музыке, как Thrash Metal во всех его проявлениях и ипостасях, а иногда и переходящему на пограничные стили Speed, Power, Groove, Crossover, MDM и т.п.
Главное правило здесь одно: Одна группа – одна тема! Всё остальное созвучно основным нормам поведения на конференции.
Шаблон оформления тем в этом подфоруме должен быть основан на данных сайта www.metal-archives.com и выглядеть следующим образом:

Группа (Страна) - Стилевые рамки - дискография
Slayer (USA) - Thrash Metal - дискография


В теме допустимо размещение всей информации касающейся данного коллектива: анонсы любых альбомов в любых форматах, запросы любых релизов коллектива (кроме релизов текущего и прошлого годов), обсуждения, обзоры, а в остальном всё как обычно. Уважаем друг друга, не грубим, соблюдаем нормы поведения на конференции, оформляем анонсы и запросы красиво и информативно, что бы модераторы не посчитали их троллингом, и не отправили куда положено, выписав Вам предупреждение или ещё что похуже… Прежде чем что-то запросить или запостить, пользуемся поиском! Пользуемся поиском! ПОЛЬЗУЕМСЯ ПОИСКОМ!!! Так слышно меня?.. :pardon:
Интересного, конструктивного и креативного общения! ;)



Post new topic Reply to topic  [ 117 posts ]  Go to page Previous  1, 2, 3, 4, 5, 6
Author Message
 
PostPosted: 19 Feb 2012 
Зарегился вот...
Joined: 12 Oct 2011
Posts: 7
Lоcаtion: Poland
Name: Marcin
marmistrz wrote:
Downloading from torrents is a bit dangerous now... All these anti-piracy statements... (now in my country we can at least dl from not-torrents for personal use)

Marcin, you can link to an article in Polish the legislation, which would have mentioned that you can not downloads this torrent? :pavlik:[/quote]

Torrents is also sharing. Sharing copyrighted material is illegal


Top
 Profile E-mail  
 
 
PostPosted: 07 Dec 2012 
консэрваторъ
Joined: 11 Aug 2007
Posts: 16333
Lоcаtion: Псков
Age: 44
Name: Сергей
DVD-рип... но несколько ремастированный... :oops: Вообще конечно релиз вышел в формате DVD+CD, но на цд всё один в один как на видео... и хрен кто когда его выложит...

Что сделано: DVD9 -> DVD Audio Extractor 5.2.1 -> WAV -> Audition 3.0 build 7283.0 -> выравнены каналы, убраны микро артефакты, перенарезаны треки -> WAV -> Easy CD-DA Extractor 16.0.6.2 -> mp3 320 с исправленными тегами... По идее фэйк конечно, но помоему у меня круче вышло чем у Golden Core Rec. :crazy:

Sacred Reich - Live At Wacken 2012 (Live)

Image

1. The American Way 04:02
2. Administrative Decisions 04:55
3. One Nation 02:49
4. Love...Hate 05:33
5. Ignorance 04:46
6. Crimes Against Humanity 06:16
7. Who's To Blame 03:45
8. State Of Emergency 07:02
9. War Pigs (Black Sabbath cover) 07:10
10. Independent 03:37
11. Death Squad 05:09
12. Surf Nicaragua 04:37

rf...

_________________
THRASH 'EM ALL


Top
 Profile E-mail  
 
 
PostPosted: 10 Dec 2012 
Работнечег
User avatar
Joined: 28 Aug 2007
Posts: 5606
Lоcаtion: г. Москва
Age: 29
Name: Дима
Спасибо Серег, слуханем!


Top
 Profile E-mail  
 
 
PostPosted: 28 Jul 2013 
Хиппей (support team)
User avatar
Joined: 30 Jul 2007
Posts: 108957
Lоcаtion: Киев (Kyiv, UA)
Age: 45
Name: Andrey
:thanx:

mirror: F-Bit l Narod

_________________


Top
 Profile E-mail  
 
 
PostPosted: 02 Aug 2013 
Хиппей (support team)
User avatar
Joined: 30 Jul 2007
Posts: 108957
Lоcаtion: Киев (Kyiv, UA)
Age: 45
Name: Andrey
Хааррош концерт :true:

_________________


Top
 Profile E-mail  
 
 
PostPosted: 23 Apr 2015 
Позитивный Южанин
User avatar
Joined: 07 May 2010
Posts: 1620
Lоcаtion: КРЫМ
Age: 43
Name: Алексей
Куплю CD (только фирменные вариации) этой замечательной группы :true: ...Сообщения в личку или на marennikov1975@rambler.ru

_________________
WATER'EM ALL!


Top
 Profile E-mail  
 
 
PostPosted: 30 Sep 2017 
консэрваторъ
Joined: 11 Aug 2007
Posts: 16333
Lоcаtion: Псков
Age: 44
Name: Сергей
Quote:
Впервые в истории Metal Blade переиздал альбом SACRED REICH "Ignorance" с оригинальным оформлением в диджипаке и на виниле. Ремастеринг материала проводил Patrick W. Engel.

CD
“Death Squad”
“Victim Of Demise”
“Layed To Rest”
“Ignorance”
“No Believers”
“Violent Solutions”
“Rest In Peace”
“Sacred Reich”
“Administrative Decisions”
“Ignorance” (Metal Massacre V)
“Draining You Of Life” (Demo)
“Rest In Peace” (Demo)
“Sacred Reich” (Demo)
“No Believers” (Demo)

Vinyl (Police blue vinyl – U.S. exclusive, limited to 200 copies)

Side A
“Death Squad”
“Victim Of Demise”
“Layed To Rest”
“Ignorance”
“No Believers”

Side B
“Violent Solutions”
“Rest In Peace”
“Sacred Reich”
“Administrative Decisions”
“Ignorance” (Metal Massacre V)

http://www.darkside.ru/news/96392/
Надо будет заценить... :oops:

_________________
THRASH 'EM ALL


Top
 Profile E-mail  
 
 
PostPosted: 22 Jul 2018 
консэрваторъ
Joined: 11 Aug 2007
Posts: 16333
Lоcаtion: Псков
Age: 44
Name: Сергей
Рип лучше, чем у меня был, спасибо, Серёг!!. :true:

_________________
THRASH 'EM ALL


Top
 Profile E-mail  
 
 
PostPosted: 22 Jul 2018 
консэрваторъ
Joined: 11 Aug 2007
Posts: 16333
Lоcаtion: Псков
Age: 44
Name: Сергей
Ремастер 2010 года альбома 1993 Independent лучше первопрасха... :arrov: https://rutracker.org/forum/viewtopic.php?t=3758140

_________________
THRASH 'EM ALL


Top
 Profile E-mail  
 
 
PostPosted: 23 Jul 2018 
Хиппей (support team)
User avatar
Joined: 30 Jul 2007
Posts: 108957
Lоcаtion: Киев (Kyiv, UA)
Age: 45
Name: Andrey
http://www.crown6.org/load/26-1-0-4693
:thanx:

Sacred Reich - 1993 - Independent [flac]

Image Image Image

mirror: Uloz l Drop l M-Cloud l Narod

Image Image Image Image Image

log
Exact Audio Copy V1.0 beta 3 from 29. August 2011

EAC extraction logfile from 23. January 2015, 21:29

Sacred Reich / Independent

Used drive : PIONEER DVD-RW DVR-221L Adapter: 2 ID: 0

Read mode : Secure
Utilize accurate stream : Yes
Defeat audio cache : Yes
Make use of C2 pointers : No

Read offset correction : 6
Overread into Lead-In and Lead-Out : No
Fill up missing offset samples with silence : Yes
Delete leading and trailing silent blocks : No
Null samples used in CRC calculations : Yes
Used interface : Native Win32 interface for Win NT & 2000

Used output format : Internal WAV Routines
Sample format : 44.100 Hz; 16 Bit; Stereo


TOC of the extracted CD

Track | Start | Length | Start sector | End sector
---------------------------------------------------------
1 | 0:00.00 | 3:37.42 | 0 | 16316
2 | 3:37.42 | 4:33.13 | 16317 | 36804
3 | 8:10.55 | 5:43.52 | 36805 | 62581
4 | 13:54.32 | 2:38.28 | 62582 | 74459
5 | 16:32.60 | 3:45.52 | 74460 | 91386
6 | 20:18.37 | 6:28.48 | 91387 | 120534
7 | 26:47.10 | 2:46.12 | 120535 | 132996
8 | 29:33.22 | 3:46.05 | 132997 | 149951
9 | 33:19.27 | 7:40.68 | 149952 | 184519
10 | 41:00.20 | 4:21.67 | 184520 | 204161
11 | 45:22.12 | 2:25.68 | 204162 | 215104


Range status and errors

Selected range

Filename D:\Свои Рипы на Линия Жизни\Sacred Reich - Independent.wav

Peak level 99.1 %
Extraction speed 7.6 X
Range quality 100.0 %
Copy CRC BDF340D3
Copy OK

No errors occurred


AccurateRip summary

Track 1 cannot be verified as accurate (confidence 12) [BAA5CD02], AccurateRip returned [857F823B] (AR v2)
Track 2 cannot be verified as accurate (confidence 12) [60688B5E], AccurateRip returned [6F2AB6F3] (AR v2)
Track 3 cannot be verified as accurate (confidence 11) [F45531F6], AccurateRip returned [763E3DF0] (AR v2)
Track 4 cannot be verified as accurate (confidence 12) [73DA36CF], AccurateRip returned [CB8659AA] (AR v2)
Track 5 cannot be verified as accurate (confidence 12) [6F5FD344], AccurateRip returned [CE4AC064] (AR v2)
Track 6 cannot be verified as accurate (confidence 12) [E79D5D83], AccurateRip returned [1AACA052] (AR v2)
Track 7 cannot be verified as accurate (confidence 12) [03D584AE], AccurateRip returned [25AF998C] (AR v2)
Track 8 cannot be verified as accurate (confidence 12) [BE0D5482], AccurateRip returned [FFFACE4E] (AR v2)
Track 9 cannot be verified as accurate (confidence 11) [68026F7E], AccurateRip returned [FCDC726E] (AR v2)
Track 10 cannot be verified as accurate (confidence 12) [893413FA], AccurateRip returned [0503C81C] (AR v2)
Track 11 cannot be verified as accurate (confidence 12) [2ACE598F], AccurateRip returned [270B2AAB] (AR v2)

No tracks could be verified as accurate
You may have a different pressing from the one(s) in the database

End of status report

cue
REM GENRE Metal
REM DATE 1993
REM DISCID 8D0B340B
REM COMMENT "ExactAudioCopy v1.0b3"
PERFORMER "Sacred Reich"
TITLE "Independent"
FILE "Sacred Reich - Independent.wav" WAVE
TRACK 01 AUDIO
TITLE "Independent"
PERFORMER "Sacred Reich"
INDEX 01 00:00:00
TRACK 02 AUDIO
TITLE "Free"
PERFORMER "Sacred Reich"
INDEX 01 03:37:42
TRACK 03 AUDIO
TITLE "Just Like That"
PERFORMER "Sacred Reich"
INDEX 00 08:10:47
INDEX 01 08:10:55
TRACK 04 AUDIO
TITLE "Supremacy"
PERFORMER "Sacred Reich"
INDEX 00 13:54:22
INDEX 01 13:54:32
TRACK 05 AUDIO
TITLE "If Only"
PERFORMER "Sacred Reich"
INDEX 01 16:32:60
TRACK 06 AUDIO
TITLE "Crawling"
PERFORMER "Sacred Reich"
INDEX 01 20:18:37
TRACK 07 AUDIO
TITLE "Pressure"
PERFORMER "Sacred Reich"
INDEX 00 26:47:00
INDEX 01 26:47:10
TRACK 08 AUDIO
TITLE "Product"
PERFORMER "Sacred Reich"
INDEX 01 29:33:22
TRACK 09 AUDIO
TITLE "I Never Said Goodbye"
PERFORMER "Sacred Reich"
INDEX 01 33:19:27
TRACK 10 AUDIO
TITLE "Open Book"
PERFORMER "Sacred Reich"
INDEX 01 41:00:20
TRACK 11 AUDIO
TITLE "Do It"
PERFORMER "Sacred Reich"
INDEX 01 45:22:12

_________________


Top
 Profile E-mail  
 
 
PostPosted: 23 Jul 2018 
Хиппей (support team)
User avatar
Joined: 30 Jul 2007
Posts: 108957
Lоcаtion: Киев (Kyiv, UA)
Age: 45
Name: Andrey
Рип лучше, чем у меня был, спасибо, Серёг!!. :true:

Хм, Серёг, а где ты Серёгин рип скачал то? :scratch:

_________________


Top
 Profile E-mail  
 
 
PostPosted: 23 Jul 2018 
Хиппей (support team)
User avatar
Joined: 30 Jul 2007
Posts: 108957
Lоcаtion: Киев (Kyiv, UA)
Age: 45
Name: Andrey
Две темы объединены в одну.

_________________


Top
 Profile E-mail  
 
 
PostPosted: 23 Jul 2018 
Хиппей (support team)
User avatar
Joined: 30 Jul 2007
Posts: 108957
Lоcаtion: Киев (Kyiv, UA)
Age: 45
Name: Andrey
ds59 wrote:
SACRED REICH - 1993 - Independent

И всё же альбом понравился - добротный грувастный трэш и ещё со скоростями :lob: :lob: :lob:

7/10

Но в топы забирать не буду. Ибо дебютник забрал на себя все силы, по ходу.

_________________


Top
 Profile E-mail  
 
 
PostPosted: 23 Jul 2018 
Хиппей (support team)
User avatar
Joined: 30 Jul 2007
Posts: 108957
Lоcаtion: Киев (Kyiv, UA)
Age: 45
Name: Andrey
Все темы по данной группы из анонсов и запросов слиты в одну.

_________________


Top
 Profile E-mail  
 
 
PostPosted: 23 Jul 2018 
Хиппей (support team)
User avatar
Joined: 30 Jul 2007
Posts: 108957
Lоcаtion: Киев (Kyiv, UA)
Age: 45
Name: Andrey
Промотал все странички - в теме только два альбома скачать можно =) :pardon:
Самое время забирать её в трэшевый раздел :kro:

_________________


Top
 Profile E-mail  
 
 
PostPosted: 23 Jul 2018 
консэрваторъ
Joined: 11 Aug 2007
Posts: 16333
Lоcаtion: Псков
Age: 44
Name: Сергей
Scatterbrain wrote:
де ты Серёгин рип скачал то?

У Серёги явно... :pardon:
Scatterbrain wrote:
Две темы объединены в одну.

Маловато будет, но всё равно :true:
Scatterbrain wrote:
Все темы по данной группы из анонсов и запросов слиты в одну.

:true: :true: :thanx:
Scatterbrain wrote:
забирать её в трэшевый раздел

Спасибо, забрат... :thanx: :thanx:

_________________
THRASH 'EM ALL


Top
 Profile E-mail  
 
 
PostPosted: 24 Jul 2018 
Хиппей (support team)
User avatar
Joined: 30 Jul 2007
Posts: 108957
Lоcаtion: Киев (Kyiv, UA)
Age: 45
Name: Andrey
splatty wrote:
У Серёги явно... :pardon:

Ага, выше ссылка была :kro:

По желанию сами же и обновите :dance: Ща мне главное темы все с дохляками сдыхацца.

_________________


Top
 Profile E-mail  
 
Display posts from previous:  Sort by  
Post new topic Reply to topic  [ 117 posts ]  Go to page Previous  1, 2, 3, 4, 5, 6

All times are UTC + 3 hours


Who is online

Users browsing this forum: No registered users and 1 guest


You cannot post new topics in this forum
You cannot reply to topics in this forum
You cannot edit your posts in this forum
You cannot delete your posts in this forum
You cannot post attachments in this forum

Search for:
Яндекс.Метрика
Powered by phpBB © 2000, 2002, 2005, 2007 phpBB Group