\m/ 80's metal \m/

Информационно-аналитический форум "80 см пыли" (In Search We Trust) "У нас никто никуда не спешит"
Me For You - http://me-4u.com
It is currently 16 Feb 2019

All times are UTC + 3 hours

Spoiler
Chat - temporary registration for foreign users (please leave your application here)





Forum rules


Уважаемые пользователи ресурса, друзья, коллеги и гости нашего форума. Данный раздел конференции создан с целью рафинации, и посвящён такому стилевому направлению в музыке, как Thrash Metal во всех его проявлениях и ипостасях, а иногда и переходящему на пограничные стили Speed, Power, Groove, Crossover, MDM и т.п.
Главное правило здесь одно: Одна группа – одна тема! Всё остальное созвучно основным нормам поведения на конференции.
Шаблон оформления тем в этом подфоруме должен быть основан на данных сайта www.metal-archives.com и выглядеть следующим образом:

Группа (Страна) - Стилевые рамки - дискография
Slayer (USA) - Thrash Metal - дискография


В теме допустимо размещение всей информации касающейся данного коллектива: анонсы любых альбомов в любых форматах, запросы любых релизов коллектива (кроме релизов текущего и прошлого годов), обсуждения, обзоры, а в остальном всё как обычно. Уважаем друг друга, не грубим, соблюдаем нормы поведения на конференции, оформляем анонсы и запросы красиво и информативно, что бы модераторы не посчитали их троллингом, и не отправили куда положено, выписав Вам предупреждение или ещё что похуже… Прежде чем что-то запросить или запостить, пользуемся поиском! Пользуемся поиском! ПОЛЬЗУЕМСЯ ПОИСКОМ!!! Так слышно меня?.. :pardon:
Интересного, конструктивного и креативного общения! ;)



Post new topic Reply to topic  [ 68 posts ]  Go to page Previous  1, 2, 3, 4  Next
Author Message
 
PostPosted: 09 Oct 2017 
Хиппей (support team)
User avatar
Joined: 30 Jul 2007
Posts: 110281
Lоcаtion: Киев (Kyiv, UA)
Age: 45
Name: Andrey
splatty wrote:
Cripper (Germany) - Death/Thrash Metal - дискография

Это чего, дальше группа и Death Metal заиграет? :scratch:

_________________


Top
 Profile E-mail  
 
 
PostPosted: 09 Oct 2017 
консэрваторъ
Joined: 11 Aug 2007
Posts: 16557
Lоcаtion: Псков
Age: 44
Name: Сергей
Пока не знаю, не слушал, но по логике да... :vic:

_________________
THRASH 'EM ALL


Top
 Profile E-mail  
 
 
PostPosted: 09 Oct 2017 
Я набрал 1000 сообщений!
Joined: 09 Jul 2008
Posts: 2583
Age: 45
Name: Сергей
Scatterbrain wrote:
Как-то группа уже поднадоела. Нет свежий идей и исполнений их же. Слишком уж они себя в узкие рамки сами загнали

Scatterbrain wrote:
альбомы чем дальше, тем никчёмнее

Scatterbrain wrote:
дальше группа и Death Metal заиграет?

все так
а 2017 это уже практически дет и есть, притом тупой и отвратный


Top
 Profile  
 
 
PostPosted: 09 Oct 2017 
Доктор энтомологии
User avatar
Joined: 22 Jan 2009
Posts: 9603
Lоcаtion: Даугавпилс
Age: 43
Name: Алексей
Ребяты играют в свое удовольствие и это уже хорошо :dance: Дэт так дэт потом будет, да, малость не в моих вкусах (простенько очень), но и так не умею :fingal:


Top
 Profile  
 
 
PostPosted: 09 Oct 2017 
Хиппей (support team)
User avatar
Joined: 30 Jul 2007
Posts: 110281
Lоcаtion: Киев (Kyiv, UA)
Age: 45
Name: Andrey
boojum wrote:
все так
а 2017 это уже практически дет и есть, притом тупой и отвратный

Жаль :(

_________________


Top
 Profile E-mail  
 
 
PostPosted: 09 Oct 2017 
Хиппей (support team)
User avatar
Joined: 30 Jul 2007
Posts: 110281
Lоcаtion: Киев (Kyiv, UA)
Age: 45
Name: Andrey
Ой, начал слушать 12-й год - бластбиты пошли и растянутые струны :yyy:
Да, и вокал почти полностью стал дэзовым.

Третья песня чистейший современный Death Metal.

_________________


Top
 Profile E-mail  
 
 
PostPosted: 09 Oct 2017 
Хиппей (support team)
User avatar
Joined: 30 Jul 2007
Posts: 110281
Lоcаtion: Киев (Kyiv, UA)
Age: 45
Name: Andrey
Cripper - 2012 - Antagonist [flac]

Image

mirror: Depos l Narod l M-Cloud l Drop

Ага, обычный такой Death/Thrash Metal с несколькими более-менее выразительными песнями. Но все остальные сплошная стена напора и сыгранное можно отличить только по лирике :pardon:

5/10

Но в начале 90-х такое бы порвало публику, эх...


Image Image Image Image Image Image Image

log
Exact Audio Copy V1.0 beta 3 from 29. August 2011

Отчёт EAC об извлечении, выполненном 6. октября 2012, 16:03

Cripper / Antagonist

Дисковод: PIONEER BD-RW BDR-207D Adapter: 1 ID: 1

Режим чтения : Достоверность
Использование точного потока : Да
Отключение кэша аудио : Да
Использование указателей C2 : Нет

Коррекция смещения при чтении : 667
Способность читать области Lead-in и Lead-out : Нет
Заполнение пропущенных сэмплов тишиной : Да
Удаление блоков с тишиной в начале и конце : Нет
При вычислениях CRC использовались нулевые сэмплы : Да
Интерфейс : Встроенный Win32-интерфейс для Win NT/2000

Выходной формат : Пользовательский кодировщик
Выбранный битрейт : 1024 kBit/s
Качество : Высокий
Добавление ID3-тега : Нет
Утилита сжатия : C:\Program Files\Exact Audio Copy\Flac\flac.exe
Дополнительные параметры : -V -8 -T "Date=%year%" -T "Genre=%genre%" %source%


TOC извлечённого CD

Трек | Старт | Длительность | Начальный сектор | Конечный сектор
---------------------------------------------------------------------
1 | 0:00.00 | 3:38.42 | 0 | 16391
2 | 3:38.42 | 3:31.73 | 16392 | 32289
3 | 7:10.40 | 2:51.59 | 32290 | 45173
4 | 10:02.24 | 4:39.15 | 45174 | 66113
5 | 14:41.39 | 3:04.18 | 66114 | 79931
6 | 17:45.57 | 4:00.48 | 79932 | 97979
7 | 21:46.30 | 4:06.06 | 97980 | 116435
8 | 25:52.36 | 4:20.47 | 116436 | 135982
9 | 30:13.08 | 3:18.12 | 135983 | 150844
10 | 33:31.20 | 3:56.31 | 150845 | 168575
11 | 37:27.51 | 3:06.48 | 168576 | 182573
12 | 40:34.24 | 6:03.39 | 182574 | 209837


Характеристики диапазона извлечения и сообщения об ошибках

Выбранный диапазон

Имя файла E:\Cripper - Antagonist.wav

Пиковый уровень 98.8 %
Скорость извлечения 6.8 X
Качество диапазона 100.0 %
CRC теста 790B9256
CRC копии 790B9256
Копирование... OK

Ошибок не произошло


AccurateRip: сводка

Трек 1 отсутствует в базе данных
Трек 2 отсутствует в базе данных
Трек 3 отсутствует в базе данных
Трек 4 отсутствует в базе данных
Трек 5 отсутствует в базе данных
Трек 6 отсутствует в базе данных
Трек 7 отсутствует в базе данных
Трек 8 отсутствует в базе данных
Трек 9 отсутствует в базе данных
Трек 10 отсутствует в базе данных
Трек 11 отсутствует в базе данных
Трек 12 отсутствует в базе данных

Ни одного трека нет в базе AccurateRip

Конец отчёта

==== Контрольная сумма отчёта 590F5D96D339A4559F4156496B2A93B06718F42F6ACC7A8CDCEFBBD027B9A9C4 ====

cue
REM GENRE "Thrash Metal"
REM DATE 2012
REM DISCID 8A0AED0C
REM COMMENT "ExactAudioCopy v1.0b3"
PERFORMER "Cripper"
TITLE "Antagonist"
FILE "Cripper - Antagonist.flac" WAVE
TRACK 01 AUDIO
TITLE "New Shadow"
PERFORMER "Cripper"
FLAGS DCP
INDEX 01 00:00:00
TRACK 02 AUDIO
TITLE "Not Dead Yet"
PERFORMER "Cripper"
FLAGS DCP
INDEX 01 03:38:42
TRACK 03 AUDIO
TITLE "Animal Of Prey"
PERFORMER "Cripper"
FLAGS DCP
INDEX 01 07:10:40
TRACK 04 AUDIO
TITLE "Totmann"
PERFORMER "Cripper"
FLAGS DCP
INDEX 01 10:02:24
TRACK 05 AUDIO
TITLE "Hegemony"
PERFORMER "Cripper"
FLAGS DCP
INDEX 01 14:41:39
TRACK 06 AUDIO
TITLE "Clean"
PERFORMER "Cripper"
FLAGS DCP
INDEX 01 17:45:57
TRACK 07 AUDIO
TITLE "General Routine"
PERFORMER "Cripper"
FLAGS DCP
INDEX 01 21:46:30
TRACK 08 AUDIO
TITLE "Dogbite"
PERFORMER "Cripper"
FLAGS DCP
INDEX 01 25:52:36
TRACK 09 AUDIO
TITLE "Another Lesson In Pain"
PERFORMER "Cripper"
FLAGS DCP
INDEX 01 30:13:08
TRACK 10 AUDIO
TITLE "Damocles"
PERFORMER "Cripper"
FLAGS DCP
INDEX 01 33:31:20
TRACK 11 AUDIO
TITLE "God Spoken Prayer"
PERFORMER "Cripper"
FLAGS DCP
INDEX 01 37:27:51
TRACK 12 AUDIO
TITLE "Cocoon"
PERFORMER "Cripper"
FLAGS DCP
INDEX 01 40:34:24

_________________


Top
 Profile E-mail  
 
 
PostPosted: 09 Oct 2017 
Хиппей (support team)
User avatar
Joined: 30 Jul 2007
Posts: 110281
Lоcаtion: Киев (Kyiv, UA)
Age: 45
Name: Andrey
Cripper - 2014 - Hyena [flac]

Image Image Image Image


mirror: Depos l Narod l M-Cloud l Drop

Два раза прослушано и забыто...
Название альбома (читаем на кириллице) говорит само за себя :(

4/10

Image Image Image

Image Image Image
ImageImage Image

log
Exact Audio Copy V1.0 beta 3 from 29. August 2011

Отчёт EAC об извлечении, выполненном 3. декабря 2014, 21:45

Cripper / Hyena

Дисковод: PIONEER BD-RW BDR-207D Adapter: 2 ID: 1

Режим чтения : Достоверность
Использование точного потока : Да
Отключение кэша аудио : Да
Использование указателей C2 : Нет

Коррекция смещения при чтении : 667
Способность читать области Lead-in и Lead-out : Нет
Заполнение пропущенных сэмплов тишиной : Да
Удаление блоков с тишиной в начале и конце : Нет
При вычислениях CRC использовались нулевые сэмплы : Да
Интерфейс : Встроенный Win32-интерфейс для Win NT/2000

Выходной формат : Пользовательский кодировщик
Выбранный битрейт : 1024 kBit/s
Качество : Высокий
Добавление ID3-тега : Да
Утилита сжатия : C:\Program Files\Exact Audio Copy\FLAC\FLAC.EXE
Дополнительные параметры : -V -8 -T "Date=%year%" -T "Genre=%genre%" %source%


TOC извлечённого CD

Трек | Старт | Длительность | Начальный сектор | Конечный сектор
---------------------------------------------------------------------
1 | 0:00.00 | 5:47.25 | 0 | 26049
2 | 5:47.25 | 2:56.03 | 26050 | 39252
3 | 8:43.28 | 5:02.61 | 39253 | 61963
4 | 13:46.14 | 4:13.23 | 61964 | 80961
5 | 17:59.37 | 5:39.55 | 80962 | 106441
6 | 23:39.17 | 3:26.72 | 106442 | 121963
7 | 27:06.14 | 4:13.17 | 121964 | 140955
8 | 31:19.31 | 3:19.04 | 140956 | 155884
9 | 34:38.35 | 4:26.57 | 155885 | 175891
10 | 39:05.17 | 4:13.56 | 175892 | 194922
11 | 43:18.73 | 7:49.58 | 194923 | 230155


Характеристики диапазона извлечения и сообщения об ошибках

Выбранный диапазон

Имя файла D:\Cripper - Hyena.wav

Пиковый уровень 99.4 %
Скорость извлечения 6.9 X
Качество диапазона 100.0 %
CRC теста C194C166
CRC копии C194C166
Копирование... OK

Ошибок не произошло


AccurateRip: сводка

Трек 1 отсутствует в базе данных
Трек 2 отсутствует в базе данных
Трек 3 отсутствует в базе данных
Трек 4 отсутствует в базе данных
Трек 5 отсутствует в базе данных
Трек 6 отсутствует в базе данных
Трек 7 отсутствует в базе данных
Трек 8 отсутствует в базе данных
Трек 9 отсутствует в базе данных
Трек 10 отсутствует в базе данных
Трек 11 отсутствует в базе данных

Ни одного трека нет в базе AccurateRip

Конец отчёта

cue
REM GENRE "Thrash Metal"
REM DATE 2014
REM DISCID 870BFC0B
REM COMMENT "ExactAudioCopy v1.0b3"
PERFORMER "Cripper"
TITLE "Hyena"
FILE "Cripper - Hyena.flac" WAVE
TRACK 01 AUDIO
TITLE "Hyena"
PERFORMER "Cripper"
FLAGS DCP
INDEX 01 00:00:00
TRACK 02 AUDIO
TITLE "Tourniquet"
PERFORMER "Cripper"
FLAGS DCP
INDEX 01 05:47:25
TRACK 03 AUDIO
TITLE "Bloodshot Monkey Eye"
PERFORMER "Cripper"
FLAGS DCP
INDEX 01 08:43:28
TRACK 04 AUDIO
TITLE "A Dime For The Establishment"
PERFORMER "Cripper"
FLAGS DCP
INDEX 01 13:46:14
TRACK 05 AUDIO
TITLE "7'"
PERFORMER "Cripper"
FLAGS DCP
INDEX 01 17:59:37
TRACK 06 AUDIO
TITLE "Animated Flesh"
PERFORMER "Cripper"
FLAGS DCP
INDEX 01 23:39:17
TRACK 07 AUDIO
TITLE "The Origin"
PERFORMER "Cripper"
FLAGS DCP
INDEX 01 27:06:14
TRACK 08 AUDIO
TITLE "Patterns In The Sky"
PERFORMER "Cripper"
FLAGS DCP
INDEX 01 31:19:31
TRACK 09 AUDIO
TITLE "The Jackhammer"
PERFORMER "Cripper"
FLAGS DCP
INDEX 01 34:38:35
TRACK 10 AUDIO
TITLE "Patronized"
PERFORMER "Cripper"
FLAGS DCP
INDEX 01 39:05:17
TRACK 11 AUDIO
TITLE "Pure"
PERFORMER "Cripper"
FLAGS DCP
INDEX 01 43:18:73

_________________


Top
 Profile E-mail  
 
 
PostPosted: 10 Oct 2017 
Хиппей (support team)
User avatar
Joined: 30 Jul 2007
Posts: 110281
Lоcаtion: Киев (Kyiv, UA)
Age: 45
Name: Andrey
splatty

Серёг, я хочу забрать этот топик в "Бухту".
Ты как на это смотришь?

_________________


Top
 Profile E-mail  
 
 
PostPosted: 10 Oct 2017 
консэрваторъ
Joined: 11 Aug 2007
Posts: 16557
Lоcаtion: Псков
Age: 44
Name: Сергей
Отрицательно... С чего вдруг такие мысли?.. Мы же обо всём давно договорились... Я как раз перехожу к изучению данного ансамбля...
Scatterbrain wrote:
А новый альбом в лосе на днях будет.

Аннету... :vic: И чего с ипихой 6-ого, так и не будет в лосе штоль?..

_________________
THRASH 'EM ALL


Top
 Profile E-mail  
 
 
PostPosted: 10 Oct 2017 
консэрваторъ
Joined: 11 Aug 2007
Posts: 16557
Lоcаtion: Псков
Age: 44
Name: Сергей
Хм... и в продаже не видать нигде... :vic: Музыкантам бум писать?..

Image

Гы... :pardon: У них мессенджер заблочен на странице зачем-то... :arrov: https://www.facebook.com/Cripper.Official
Крапанул в публикациях посетителей... Но что-то мне подсказывает, когда у руля баба, остальные мужики в группе все тупят... :crazy:
Ипиха хороша на самом деле!.. :lob:

_________________
THRASH 'EM ALL


Top
 Profile E-mail  
 
 
PostPosted: 10 Oct 2017 
Хиппей (support team)
User avatar
Joined: 30 Jul 2007
Posts: 110281
Lоcаtion: Киев (Kyiv, UA)
Age: 45
Name: Andrey
splatty wrote:
Отрицательно... С чего вдруг такие мысли?.. Мы же обо всём давно договорились... Я как раз перехожу к изучению данного ансамбля...

Понял. Но не понял, разве мы договаривались о том, что перемещений обратно топиков не будет? =)
splatty wrote:
И чего с ипихой 6-ого, так и не будет в лосе штоль?..

А чего там интересного есть? :vic:

_________________


Top
 Profile E-mail  
 
 
PostPosted: 10 Oct 2017 
Хиппей (support team)
User avatar
Joined: 30 Jul 2007
Posts: 110281
Lоcаtion: Киев (Kyiv, UA)
Age: 45
Name: Andrey
splatty wrote:
Крапанул в публикациях посетителей...

Не вижу крапок :(

_________________


Top
 Profile E-mail  
 
 
PostPosted: 10 Oct 2017 
консэрваторъ
Joined: 11 Aug 2007
Posts: 16557
Lоcаtion: Псков
Age: 44
Name: Сергей
Так, Андрюха, не заставляй меня снова нервничать... у меня вон работа и так нервная, а тут ты с перетяжками... :punish:
Крапа тут... :arrov: https://www.facebook.com/Cripper.Offici ... 5921164639

_________________
THRASH 'EM ALL


Top
 Profile E-mail  
 
 
PostPosted: 10 Oct 2017 
Хиппей (support team)
User avatar
Joined: 30 Jul 2007
Posts: 110281
Lоcаtion: Киев (Kyiv, UA)
Age: 45
Name: Andrey
Серёг, там же карта :lloo:

Image

_________________


Top
 Profile E-mail  
 
 
PostPosted: 10 Oct 2017 
консэрваторъ
Joined: 11 Aug 2007
Posts: 16557
Lоcаtion: Псков
Age: 44
Name: Сергей
Справа... или так https://www.facebook.com/Cripper.Offici ... s_to_page/

_________________
THRASH 'EM ALL


Top
 Profile E-mail  
 
 
PostPosted: 10 Oct 2017 
Доктор энтомологии
User avatar
Joined: 22 Jan 2009
Posts: 9603
Lоcаtion: Даугавпилс
Age: 43
Name: Алексей
У них сейчас тур по чухониям. В Таллине сейчас, в Риге уже выступил вродь..


Top
 Profile  
 
 
PostPosted: 10 Oct 2017 
Хиппей (support team)
User avatar
Joined: 30 Jul 2007
Posts: 110281
Lоcаtion: Киев (Kyiv, UA)
Age: 45
Name: Andrey
О, я думал, чухонии, это типа Монголии што-то :scratch:

_________________


Top
 Profile E-mail  
 
 
PostPosted: 10 Oct 2017 
Доктор энтомологии
User avatar
Joined: 22 Jan 2009
Posts: 9603
Lоcаtion: Даугавпилс
Age: 43
Name: Алексей
Древние земли, да. Чудь белоглазая :lloo:

| +
Image


Top
 Profile  
 
 
PostPosted: 10 Oct 2017 
Хиппей (support team)
User avatar
Joined: 30 Jul 2007
Posts: 110281
Lоcаtion: Киев (Kyiv, UA)
Age: 45
Name: Andrey
Ааа, теперь понял :thanx: https://ru.wikipedia.org/wiki/%D0%A7%D1 ... 0%BD%D0%B0

_________________


Top
 Profile E-mail  
 
Display posts from previous:  Sort by  
Post new topic Reply to topic  [ 68 posts ]  Go to page Previous  1, 2, 3, 4  Next

All times are UTC + 3 hours


Who is online

Users browsing this forum: No registered users and 2 guests


You cannot post new topics in this forum
You cannot reply to topics in this forum
You cannot edit your posts in this forum
You cannot delete your posts in this forum
You cannot post attachments in this forum

Search for:
Яндекс.Метрика
cron
Powered by phpBB © 2000, 2002, 2005, 2007 phpBB Group