\m/ 80's metal \m/

Информационно-аналитический форум "80 см пыли" (In Search We Trust) "У нас никто никуда не спешит"
Me For You - http://me-4u.com
It is currently 18 Feb 2019

All times are UTC + 3 hours

Spoiler
Chat - temporary registration for foreign users (please leave your application here)





Forum rules


Уважаемые пользователи ресурса, друзья, коллеги и гости нашего форума. Данный раздел конференции создан с целью рафинации, и посвящён такому стилевому направлению в музыке, как Thrash Metal во всех его проявлениях и ипостасях, а иногда и переходящему на пограничные стили Speed, Power, Groove, Crossover, MDM и т.п.
Главное правило здесь одно: Одна группа – одна тема! Всё остальное созвучно основным нормам поведения на конференции.
Шаблон оформления тем в этом подфоруме должен быть основан на данных сайта www.metal-archives.com и выглядеть следующим образом:

Группа (Страна) - Стилевые рамки - дискография
Slayer (USA) - Thrash Metal - дискография


В теме допустимо размещение всей информации касающейся данного коллектива: анонсы любых альбомов в любых форматах, запросы любых релизов коллектива (кроме релизов текущего и прошлого годов), обсуждения, обзоры, а в остальном всё как обычно. Уважаем друг друга, не грубим, соблюдаем нормы поведения на конференции, оформляем анонсы и запросы красиво и информативно, что бы модераторы не посчитали их троллингом, и не отправили куда положено, выписав Вам предупреждение или ещё что похуже… Прежде чем что-то запросить или запостить, пользуемся поиском! Пользуемся поиском! ПОЛЬЗУЕМСЯ ПОИСКОМ!!! Так слышно меня?.. :pardon:
Интересного, конструктивного и креативного общения! ;)

Image



Post new topic Reply to topic  [ 32 posts ]  Go to page 1, 2  Next
Author Message
 
PostPosted: 12 Jun 2009 
дядя Миша
User avatar
Joined: 17 Oct 2008
Posts: 3094
Lоcаtion: USSR
Age: 56
Name: Khy
Assorted Heap – 1992 – Mindwaves

Image

Assorted Heap – 1992 – Mindwaves
Немецкая трэшевая бригада. Ложка death metal засыпана, но thrash дух перешибает здесь всё. !Настоящий и в тоже время совершенно оригинальный thrash материал. Не то , что бы навороченный , не то , что бы простой или bay area . Думаю всем любителям , особенно «большеротым» ,будет интересно послушать. Скачал с MMT лосика без обложек, там если надо его и найдёте.


Top
 Profile  
 
 
PostPosted: 19 Sep 2009 
дядя Миша
User avatar
Joined: 17 Oct 2008
Posts: 3094
Lоcаtion: USSR
Age: 56
Name: Khy
ASSORTED HEAP - 1991 - The experience of horror

Image

Дебютник оказался ещё более агрессивней ! Знатное рубилово!
Скачал так же с ММТ , и так же без обложек.


Top
 Profile  
 
 
PostPosted: 10 Apr 2018 
Генеральный thrasher
User avatar
Joined: 03 Oct 2008
Posts: 3599
Lоcаtion: Ханты-Мансийский АО
Age: 44
Name: Сергей
Переиздание дебютника с бонусами раздаю на трэкере.


Top
 Profile  
 
 
PostPosted: 10 Apr 2018 
консэрваторъ
Joined: 11 Aug 2007
Posts: 16567
Lоcаtion: Псков
Age: 44
Name: Сергей
Надо и второй в переиздание, тогда и демки там в бонусах все скомплектуются... :oops:

_________________
THRASH 'EM ALL


Top
 Profile E-mail  
 
 
PostPosted: 11 Apr 2018 
Хиппей (support team)
User avatar
Joined: 30 Jul 2007
Posts: 110315
Lоcаtion: Киев (Kyiv, UA)
Age: 45
Name: Andrey
Тему в трэш чего не забрали ещё?

_________________


Top
 Profile E-mail  
 
 
PostPosted: 11 Apr 2018 
консэрваторъ
Joined: 11 Aug 2007
Posts: 16567
Lоcаtion: Псков
Age: 44
Name: Сергей
Уже... склонил меня опять к сексу... :pardon:

_________________
THRASH 'EM ALL


Top
 Profile E-mail  
 
 
PostPosted: 11 Apr 2018 
Прокъмитолист
User avatar
Joined: 12 Aug 2007
Posts: 6527
Lоcаtion: Санктъ-Петербуркъ
Age: 51
Name: Олекъ
:benya:

_________________
прокъметол - это музыко, от которово есть прок (ы)


Top
 Profile  
 
 
PostPosted: 11 Apr 2018 
Хиппей (support team)
User avatar
Joined: 30 Jul 2007
Posts: 110315
Lоcаtion: Киев (Kyiv, UA)
Age: 45
Name: Andrey
:thanx:

Теперь бы ссылок на лосей =))
Ну да то такое. Раздел вне основного форума, так шо сами тута делайте чёта :pardon:

_________________


Top
 Profile E-mail  
 
 
PostPosted: 11 Apr 2018 
Генеральный thrasher
User avatar
Joined: 03 Oct 2008
Posts: 3599
Lоcаtion: Ханты-Мансийский АО
Age: 44
Name: Сергей
Андрей,ну всё ж есть на трэкере! Переиздание второго альбома хотел сегодня выложить на трэкере,но на учения вызвали. Завтра на службу...


Top
 Profile  
 
 
PostPosted: 11 Apr 2018 
Хиппей (support team)
User avatar
Joined: 30 Jul 2007
Posts: 110315
Lоcаtion: Киев (Kyiv, UA)
Age: 45
Name: Andrey
Ну так давайте перейдём все туда и не будем засирать этот форум простой болтовнёй, шо где-то шото вышло, ага?

Я обожаю американские форумы, где люди орут - вау, вышел альбом опупеннной группы и... дают ссылка на официальных дистрибьюторов =)))

Серёг, ну мы родом из Совка, какое к едреням покупать музон то? :starz:

_________________


Top
 Profile E-mail  
 
 
PostPosted: 11 Apr 2018 
Хиппей (support team)
User avatar
Joined: 30 Jul 2007
Posts: 110315
Lоcаtion: Киев (Kyiv, UA)
Age: 45
Name: Andrey
Scatterbrain wrote:
Серёг, ну мы родом из Совка, какое к едреням покупать музон то?

Извините, погорячился чуть :fingal:
Понятно, что без покупки дисков, винилов и вэб-рипов то не будет и самой музыки. Хотя вопрос спорный очень на данный день.

Но разве так сложно и здесь тыкнуть ссылку на раздачу с Рутрекера?


Впрочем, умываю я голову из этого вашего аппендикс-раздела :pardon:

_________________


Top
 Profile E-mail  
 
 
PostPosted: 11 Apr 2018 
Генеральный thrasher
User avatar
Joined: 03 Oct 2008
Posts: 3599
Lоcаtion: Ханты-Мансийский АО
Age: 44
Name: Сергей
Так лучше?

Image

Year:1991 (2015 Reissue)
Style:Thrash/Death Metal
Country:Germany
Archive:Flac+Cue+Log+Scans
Source:my CD
Size:446Mb
Label:VIC Records

Tracklist:
01. Unexpiated Bloodshed 04:17
02. Experience Of Horror 05:51
03. Rememberance Of Tomorrow 03:52
04. In Vain 01:08
05. Sold Out Souls 05:40
06. Trick To Your Mind 06:33
07. Terrorized Brains 04:27
08. Grave New World 05:07
09. Frisia Non Cantat 00:44
Killing Peace (Demo 1988):
10. Intro 02:27
11. Killing Peace 03:37
12. Go To Throw Up 03:35
13. Assorted Heap 05:10
14. I Don't Care 06:02
15. Green Berets - Fail 00:12
16. Green Berets 02:52
17. After The Attack 05:23

"Log"
Exact Audio Copy V1.1 from 23. June 2015

Отчёт EAC об извлечении, выполненном 7. апреля 2018, 10:32

Assorted Heap / The Experience Of Horror

Дисковод: HL-DT-STDVDRAM GTA0N Adapter: 1 ID: 0

Режим чтения : Достоверность
Использование точного потока : Да
Отключение кэша аудио : Да
Использование указателей C2 : Нет

Коррекция смещения при чтении : 102
Способность читать области Lead-in и Lead-out : Нет
Заполнение пропущенных сэмплов тишиной : Да
Удаление блоков с тишиной в начале и конце : Нет
При вычислениях CRC использовались нулевые сэмплы : Да
Интерфейс : Встроенный Win32-интерфейс для Win NT/2000

Выходной формат : Пользовательский кодировщик
Выбранный битрейт : 768 kBit/s
Качество : Высокий
Добавление ID3-тега : Нет
Утилита сжатия : C:\Program Files (x86)\Exact Audio Copy\FLAC\FLAC.EXE
Дополнительные параметры : -V -8 -T "Date=%year%" -T "Genre=%genre%" %source%


TOC извлечённого CD

Трек | Старт | Длительность | Начальный сектор | Конечный сектор
---------------------------------------------------------------------
1 | 0:00.00 | 4:16.59 | 0 | 19258
2 | 4:16.59 | 5:51.00 | 19259 | 45583
3 | 10:07.59 | 3:52.00 | 45584 | 62983
4 | 13:59.59 | 1:07.60 | 62984 | 68068
5 | 15:07.44 | 5:39.67 | 68069 | 93560
6 | 20:47.36 | 6:33.00 | 93561 | 123035
7 | 27:20.36 | 4:27.00 | 123036 | 143060
8 | 31:47.36 | 5:07.00 | 143061 | 166085
9 | 36:54.36 | 0:44.35 | 166086 | 169420
10 | 37:38.71 | 2:27.25 | 169421 | 180470
11 | 40:06.21 | 3:36.73 | 180471 | 196743
12 | 43:43.19 | 3:34.68 | 196744 | 212861
13 | 47:18.12 | 5:09.68 | 212862 | 236104
14 | 52:28.05 | 6:02.62 | 236105 | 263316
15 | 58:30.67 | 0:11.52 | 263317 | 264193
16 | 58:42.44 | 2:51.68 | 264194 | 277086
17 | 61:34.37 | 5:22.71 | 277087 | 301307


Характеристики диапазона извлечения и сообщения об ошибках

Выбранный диапазон

Имя файла C:\Users\магазин\Music\Assorted Heap - The Experience Of Horror.wav

Пиковый уровень 100.0 %
Скорость извлечения 2.2 X
Качество диапазона 100.0 %
CRC теста 45769CF2
CRC копии 45769CF2
Копирование... OK

Ошибок не произошло


AccurateRip: сводка

Трек 1 : извлечено точно (доверие 2) [64109C9D] (AR v2)
Трек 2 : извлечено точно (доверие 2) [2F1F536E] (AR v2)
Трек 3 : извлечено точно (доверие 2) [8D222DDC] (AR v2)
Трек 4 : извлечено точно (доверие 2) [2DBEB199] (AR v2)
Трек 5 : извлечено точно (доверие 2) [9942301C] (AR v2)
Трек 6 : извлечено точно (доверие 2) [4B514274] (AR v2)
Трек 7 : извлечено точно (доверие 2) [9EE6C3C8] (AR v2)
Трек 8 : извлечено точно (доверие 2) [16E755AA] (AR v2)
Трек 9 : извлечено точно (доверие 2) [BBDB8844] (AR v2)
Трек 10 : извлечено точно (доверие 2) [9C80712A] (AR v2)
Трек 11 : извлечено точно (доверие 2) [54114192] (AR v2)
Трек 12 : извлечено точно (доверие 2) [C3BAC03F] (AR v2)
Трек 13 : извлечено точно (доверие 2) [A97EDFBE] (AR v2)
Трек 14 : извлечено точно (доверие 2) [85F2C252] (AR v2)
Трек 15 : извлечено точно (доверие 2) [36FE3CF4] (AR v2)
Трек 16 : извлечено точно (доверие 2) [368E76EC] (AR v2)
Трек 17 : извлечено точно (доверие 2) [82C5163C] (AR v2)

Все треки извлечены точно

Конец отчёта

---- CUETools DB Plugin V2.1.6

[CTDB TOCID: Lenu._LvxfjWaOwgg0hFS5aHxLE-] found
Submit result: Lenu._LvxfjWaOwgg0hFS5aHxLE- has been confirmed
Track | CTDB Status
1 | (1/1) Accurately ripped
2 | (1/1) Accurately ripped
3 | (1/1) Accurately ripped
4 | (1/1) Accurately ripped
5 | (1/1) Accurately ripped
6 | (1/1) Accurately ripped
7 | (1/1) Accurately ripped
8 | (1/1) Accurately ripped
9 | (1/1) Accurately ripped
10 | (1/1) Accurately ripped
11 | (1/1) Accurately ripped
12 | (1/1) Accurately ripped
13 | (1/1) Accurately ripped
14 | (1/1) Accurately ripped
15 | (1/1) Accurately ripped
16 | (1/1) Accurately ripped
17 | (1/1) Accurately ripped


The Experience Of Horror


Top
 Profile  
 
 
PostPosted: 11 Apr 2018 
Хиппей (support team)
User avatar
Joined: 30 Jul 2007
Posts: 110315
Lоcаtion: Киев (Kyiv, UA)
Age: 45
Name: Andrey
Ну а "ломается" подобный раздел под направленность форумную очень легко.

Сейчас если я запрошу здесь пару изданий и переизданий этих двух альбомов, что вы мне ответить сможете, кроме игнора и разведённых своих же рук?

_________________


Top
 Profile E-mail  
 
 
PostPosted: 11 Apr 2018 
Хиппей (support team)
User avatar
Joined: 30 Jul 2007
Posts: 110315
Lоcаtion: Киев (Kyiv, UA)
Age: 45
Name: Andrey
thorbeorn wrote:
The Experience Of Horror

:thanx:

mirror: Giga l Drop l Narod l M-Cloud

_________________


Top
 Profile E-mail  
 
 
PostPosted: 11 Apr 2018 
Хиппей (support team)
User avatar
Joined: 30 Jul 2007
Posts: 110315
Lоcаtion: Киев (Kyiv, UA)
Age: 45
Name: Andrey
thorbeorn wrote:
Так лучше?

Для меня - да. Почти как зимой в обуви себя чувствую на снегу - комфортно немного стало :kro:

_________________


Top
 Profile E-mail  
 
 
PostPosted: 11 Apr 2018 
консэрваторъ
Joined: 11 Aug 2007
Posts: 16567
Lоcаtion: Псков
Age: 44
Name: Сергей
Всё же, да, удобно когда сразу в теме ссыль на ФО... :oops:

_________________
THRASH 'EM ALL


Top
 Profile E-mail  
 
 
PostPosted: 11 Apr 2018 
А может смените мне статус?..
User avatar
Joined: 02 Sep 2007
Posts: 571
Lоcаtion: г.Москва, Юго-Запад
Age: 49
Name: Сергей
Диск дикий ... по трэш/дэту пропускать нельзя ни в коем случае.
:thanx:


Top
 Profile  
 
 
PostPosted: 11 Apr 2018 
Работнечег
User avatar
Joined: 28 Aug 2007
Posts: 5712
Lоcаtion: г. Москва
Age: 29
Name: Дима
:thanx:


Top
 Profile E-mail  
 
 
PostPosted: 13 Apr 2018 
Генеральный thrasher
User avatar
Joined: 03 Oct 2008
Posts: 3599
Lоcаtion: Ханты-Мансийский АО
Age: 44
Name: Сергей
Image

Year:1992 (2016 Reissue)
Style:Thrash/Death Metal
Country:Germany
Archive:Flac+Cue+Log+Scans
Source:my CD
Size:390Mb
Label:VIC Records

Tracklist:
01. Coloured Eyes 05:04
02. Holy Ground 03:30
03. What I Confess 08:21
04. Nice to Beat You 04:01
05. Mindwaves 04:33
06. Dealing with Dilemma 05:03
07. Cardinal Sin 04:05
08. Hardcore Incorrigible 03:45
09. Artificial Intelligence 05:00
Live 1992:
10. Terrorized Brains 04:44
11. Holy Ground 03:35
12. Cardinal Sin 04:04
13. Unexpiated Bloodshed 04:30

"Log"
Exact Audio Copy V1.1 from 23. June 2015

Отчёт EAC об извлечении, выполненном 7. апреля 2018, 11:04

Assorted Heap / Mindwaves

Дисковод: HL-DT-STDVDRAM GTA0N Adapter: 1 ID: 0

Режим чтения : Достоверность
Использование точного потока : Да
Отключение кэша аудио : Да
Использование указателей C2 : Нет

Коррекция смещения при чтении : 102
Способность читать области Lead-in и Lead-out : Нет
Заполнение пропущенных сэмплов тишиной : Да
Удаление блоков с тишиной в начале и конце : Нет
При вычислениях CRC использовались нулевые сэмплы : Да
Интерфейс : Встроенный Win32-интерфейс для Win NT/2000

Выходной формат : Пользовательский кодировщик
Выбранный битрейт : 768 kBit/s
Качество : Высокий
Добавление ID3-тега : Нет
Утилита сжатия : C:\Program Files (x86)\Exact Audio Copy\FLAC\FLAC.EXE
Дополнительные параметры : -V -8 -T "Date=%year%" -T "Genre=%genre%" %source%


TOC извлечённого CD

Трек | Старт | Длительность | Начальный сектор | Конечный сектор
---------------------------------------------------------------------
1 | 0:00.00 | 5:04.34 | 0 | 22833
2 | 5:04.34 | 3:30.07 | 22834 | 38590
3 | 8:34.41 | 8:21.01 | 38591 | 76166
4 | 16:55.42 | 4:01.36 | 76167 | 94277
5 | 20:57.03 | 4:32.74 | 94278 | 114751
6 | 25:30.02 | 5:02.72 | 114752 | 137473
7 | 30:32.74 | 4:05.05 | 137474 | 155853
8 | 34:38.04 | 3:45.37 | 155854 | 172765
9 | 38:23.41 | 4:59.74 | 172766 | 195264
10 | 43:23.40 | 4:43.71 | 195265 | 216560
11 | 48:07.36 | 3:34.55 | 216561 | 232665
12 | 51:42.16 | 4:03.71 | 232666 | 250961
13 | 55:46.12 | 4:29.73 | 250962 | 271209


Характеристики диапазона извлечения и сообщения об ошибках

Выбранный диапазон

Имя файла C:\Users\магазин\Music\Assorted Heap - Mindwaves.wav

Пиковый уровень 100.0 %
Скорость извлечения 4.1 X
Качество диапазона 99.9 %
CRC теста 39CFC7EF
CRC копии 39CFC7EF
Копирование... OK

Ошибок не произошло


AccurateRip: сводка

Трек 1 : извлечено точно (доверие 2) [82F9CD6E] (AR v2)
Трек 2 : извлечено точно (доверие 2) [C82947AB] (AR v2)
Трек 3 : извлечено точно (доверие 2) [9795A6C9] (AR v2)
Трек 4 : извлечено точно (доверие 2) [F6CEAED1] (AR v2)
Трек 5 : извлечено точно (доверие 2) [A4BAB375] (AR v2)
Трек 6 : извлечено точно (доверие 2) [9058A2F7] (AR v2)
Трек 7 : извлечено точно (доверие 1) [F0ACA4A1] (AR v2)
Трек 8 : извлечено точно (доверие 1) [0F6E7732] (AR v2)
Трек 9 : извлечено точно (доверие 1) [0BD3380D] (AR v2)
Трек 10 : извлечено точно (доверие 2) [6CCD64AF] (AR v2)
Трек 11 : извлечено точно (доверие 1) [1EE362B6] (AR v2)
Трек 12 : извлечено точно (доверие 1) [71340794] (AR v2)
Трек 13 : извлечено точно (доверие 1) [187C0224] (AR v2)

Все треки извлечены точно

Конец отчёта

---- CUETools DB Plugin V2.1.6

[CTDB TOCID: tVdDfW1.1MjMve0DlFewZkf8CsI-] found
Submit result: tVdDfW1.1MjMve0DlFewZkf8CsI- has been uploaded
Track | CTDB Status
1 | (1/1) Accurately ripped
2 | (1/1) Accurately ripped
3 | (1/1) Accurately ripped
4 | (1/1) Accurately ripped
5 | (1/1) Accurately ripped
6 | (1/1) Accurately ripped
7 | (1/1) Accurately ripped
8 | (1/1) Accurately ripped
9 | (1/1) Accurately ripped
10 | (1/1) Accurately ripped
11 | (1/1) Accurately ripped
12 | (1/1) Accurately ripped
13 | (1/1) Differs in 10 samples @01:00:12,01:00:31
If you are sure that your rip contains errors, you can use CUETools to repair it.


Mindwaves


Top
 Profile  
 
 
PostPosted: 13 Apr 2018 
Прокъмитолист
User avatar
Joined: 12 Aug 2007
Posts: 6527
Lоcаtion: Санктъ-Петербуркъ
Age: 51
Name: Олекъ
спасибо, Серёга! :thanx: и второго забираем :lob:

_________________
прокъметол - это музыко, от которово есть прок (ы)


Top
 Profile  
 
Display posts from previous:  Sort by  
Post new topic Reply to topic  [ 32 posts ]  Go to page 1, 2  Next

All times are UTC + 3 hours


Who is online

Users browsing this forum: No registered users and 4 guests


You cannot post new topics in this forum
You cannot reply to topics in this forum
You cannot edit your posts in this forum
You cannot delete your posts in this forum
You cannot post attachments in this forum

Search for:
Яндекс.Метрика
Powered by phpBB © 2000, 2002, 2005, 2007 phpBB Group