\m/ 80's metal \m/

Информационно-аналитический форум "80 см пыли" (In Search We Trust) "У нас никто никуда не спешит"
Me For You - http://me-4u.com
It is currently 17 Jul 2019

All times are UTC + 3 hours

Spoiler
Chat - temporary registration for foreign users (please leave your application here)





Forum rules


Уважаемые пользователи ресурса, друзья, коллеги и гости нашего форума. Данный раздел конференции создан с целью рафинации, и посвящён такому стилевому направлению в музыке, как Thrash Metal во всех его проявлениях и ипостасях, а иногда и переходящему на пограничные стили Speed, Power, Groove, Crossover, MDM и т.п.
Главное правило здесь одно: Одна группа – одна тема! Всё остальное созвучно основным нормам поведения на конференции.
Шаблон оформления тем в этом подфоруме должен быть основан на данных сайта www.metal-archives.com и выглядеть следующим образом:

Группа (Страна) - Стилевые рамки - дискография
Slayer (USA) - Thrash Metal - дискография


В теме допустимо размещение всей информации касающейся данного коллектива: анонсы любых альбомов в любых форматах, запросы любых релизов коллектива (кроме релизов текущего и прошлого годов), обсуждения, обзоры, а в остальном всё как обычно. Уважаем друг друга, не грубим, соблюдаем нормы поведения на конференции, оформляем анонсы и запросы красиво и информативно, что бы модераторы не посчитали их троллингом, и не отправили куда положено, выписав Вам предупреждение или ещё что похуже… Прежде чем что-то запросить или запостить, пользуемся поиском! Пользуемся поиском! ПОЛЬЗУЕМСЯ ПОИСКОМ!!! Так слышно меня?.. :pardon:
Интересного, конструктивного и креативного общения! ;)

Image



Post new topic Reply to topic  [ 180 posts ]  Go to page Previous  1, 2, 3, 4, 5, 6 ... 9  Next
Author Message
 
PostPosted: 15 Sep 2009 
Прокъмитолист
User avatar
Joined: 12 Aug 2007
Posts: 6574
Lоcаtion: Санктъ-Петербуркъ
Age: 51
Name: Олекъ
эх, лося бы :zayaz:

_________________
прокъметол - это музыко, от которово есть прок (ы)


Top
 Profile  
 
 
PostPosted: 15 Sep 2009 
труъ антисионист
User avatar
Joined: 01 Aug 2007
Posts: 4544
Lоcаtion: Откуда и большинство из нас
Age: 38
Name: Дядя Вова
spiralarch wrote:
эх, лося бы :zayaz:

+1 :true:

_________________
Image
Image


Top
 Profile  
 
 
PostPosted: 15 Sep 2009 
Генеральный thrasher
User avatar
Joined: 03 Oct 2008
Posts: 3713
Lоcаtion: Ханты-Мансийский АО
Age: 44
Name: Сергей
А вот фирму закажу - будет и лось...


Top
 Profile  
 
 
PostPosted: 15 Sep 2009 
дядя Миша
User avatar
Joined: 17 Oct 2008
Posts: 3150
Lоcаtion: USSR
Age: 56
Name: Khy
Quote:
А вот фирму закажу - будет и лось...

:true: Мужик сказал - мужик сделал!


Top
 Profile  
 
 
PostPosted: 15 Sep 2009 
Генеральный thrasher
User avatar
Joined: 03 Oct 2008
Posts: 3713
Lоcаtion: Ханты-Мансийский АО
Age: 44
Name: Сергей
VARVAAR wrote:
Quote:
А вот фирму закажу - будет и лось...

:true: Мужик сказал - мужик сделал!


Базара нет!Сейчас жду "Unfinished Business" и "Deep And Dreamless Sleep" на фирме...Новый тоже закажу.


Top
 Profile  
 
 
PostPosted: 15 Sep 2009 
5cm
User avatar
Joined: 24 Feb 2009
Posts: 68
Age: 44
Name: .
АААААААААААААААААААААА Спасибо!!!!!!!!!!!!!!!!!!!!!!!!!!!!! :crazy:


Top
 Profile  
 
 
PostPosted: 24 Sep 2009 
Генеральный thrasher
User avatar
Joined: 03 Oct 2008
Posts: 3713
Lоcаtion: Ханты-Мансийский АО
Age: 44
Name: Сергей
Meliah Rage - Unfinished Business (Compilation) 1999 (2007 LM492 CD)

Image

Style: Power/Thrash Metal
Country: U.S.A.
Audio: flac+cue+log
Size: 349Mb
Label: Locomotive Records

Line-Up:
Mike Munro - vocals
Anthony Nichols - guitar
Jim Koury - guitar
Clark Lush - bass
Sully Erna - drums

Tracklist:
1. Mind Stalk 04:13
2. Moment of silence 05:40
3. Ruthless 04:22
4. Decade dreams 04:06
5. Blacksmith 03:19
6. Possesing judgement 04:03
7. Violent force 03:39
8. Season to kill 05:47
9. Interview with Tony Nichols 19:00

Total playing time 54:14

Cue
REM GENRE "Heavy Metal"
REM DATE 1995
REM DISCID 7D0CB609
REM COMMENT "ExactAudioCopy v0.99pb4"
PERFORMER "Meliah Rage"
TITLE "Unfinished business"
FILE "Meliah Rage - Unfinished business.flac" WAVE
TRACK 01 AUDIO
TITLE "Mind stalk"
PERFORMER "Meliah Rage"
INDEX 01 00:00:00
TRACK 02 AUDIO
TITLE "Moment of silence"
PERFORMER "Meliah Rage"
INDEX 01 04:13:15
TRACK 03 AUDIO
TITLE "Ruthless"
PERFORMER "Meliah Rage"
INDEX 00 09:53:50
INDEX 01 09:54:05
TRACK 04 AUDIO
TITLE "Decade of dreams"
PERFORMER "Meliah Rage"
INDEX 00 14:16:32
INDEX 01 14:16:62
TRACK 05 AUDIO
TITLE "Blacksmith"
PERFORMER "Meliah Rage"
INDEX 00 18:22:70
INDEX 01 18:23:25
TRACK 06 AUDIO
TITLE "Possessing judgement"
PERFORMER "Meliah Rage"
INDEX 00 21:43:00
INDEX 01 21:43:30
TRACK 07 AUDIO
TITLE "Violent force"
PERFORMER "Meliah Rage"
INDEX 01 25:47:20
TRACK 08 AUDIO
TITLE "Season to kill"
PERFORMER "Meliah Rage"
INDEX 00 29:26:60
INDEX 01 29:27:15
TRACK 09 AUDIO
TITLE "{Interview}"
PERFORMER "Meliah Rage"
INDEX 00 35:14:32
INDEX 01 35:16:32

Log
Exact Audio Copy V0.99 prebeta 4 from 23. January 2008

Отчёт EAC об извлечении, выполненном 24. сентября 2009, 7:25

Meliah Rage / Unfinished business

Дисковод: ATAPI DVD A DH20A4P Adapter: 0 ID: 1

Режим чтения : Достоверность
Использование точного потока : Да
Отключение кэша аудио : Да
Использование указателей C2 : Нет

Коррекция смещения при чтении : 6
Способность читать области Lead-in и Lead-out : Нет
Заполнение пропущенных сэмплов тишиной : Да
Удаление блоков с тишиной в начале и конце : Нет
При вычислениях CRC использовались нулевые сэмплы : Нет
Интерфейс : Встроенный Win32-интерфейс для Win NT/2000

Выходной формат : Пользовательский кодировщик
Выбранный битрейт : 768 kBit/s
Качество : Высокий
Добавление ID3-тэга : Нет
Утилита сжатия : C:\Program Files\Exact Audio Copy\FLAC\FLAC.EXE
Дополнительные параметры : -6 -V -T "ARTIST=%a" -T "TITLE=%t" -T "ALBUM=%g" -T "DATE=%y" -T "TRACKNUMBER=%n" -T "GENRE=%m" -T "COMMENT=%e" %s -o %d


TOC извлечённого CD

Трек | Старт | Длительность | Начальный сектор | Конечный сектор
---------------------------------------------------------------------
1 | 0:00.00 | 4:13.15 | 0 | 18989
2 | 4:13.15 | 5:40.65 | 18990 | 44554
3 | 9:54.05 | 4:22.57 | 44555 | 64261
4 | 14:16.62 | 4:06.38 | 64262 | 82749
5 | 18:23.25 | 3:20.05 | 82750 | 97754
6 | 21:43.30 | 4:03.65 | 97755 | 116044
7 | 25:47.20 | 3:39.70 | 116045 | 132539
8 | 29:27.15 | 5:49.17 | 132540 | 158731
9 | 35:16.32 | 18:58.20 | 158732 | 244101


Характеристики диапазона извлечения и сообщения об ошибках

Выбранный диапазон

Имя файла D:\Lossless Music\Meliah Rage - Unfinished business.wav

Пиковый уровень 100.0 %
Качество диапазона 100.0 %
CRC копии 9BCCC0BA
Копирование... OK

Ошибок не произошло


AccurateRip: сводка

Трек 1 нет в базе данных
Трек 2 нет в базе данных
Трек 3 нет в базе данных
Трек 4 нет в базе данных
Трек 5 нет в базе данных
Трек 6 нет в базе данных
Трек 7 нет в базе данных
Трек 8 нет в базе данных
Трек 9 нет в базе данных

Ни одного трека нет в базе AccurateRip

Конец отчёта

Megaupload
Сканы


Top
 Profile  
 
 
PostPosted: 24 Sep 2009 
Работнечег
User avatar
Joined: 28 Aug 2007
Posts: 5912
Lоcаtion: г. Москва
Age: 30
Name: Дима
Спасибо! :thanx:


Top
 Profile E-mail  
 
 
PostPosted: 24 Sep 2009 
HAMMER
User avatar
Joined: 16 May 2009
Posts: 5488
Lоcаtion: Тверь
Age: 46
Name: Александр
Спасибо


Top
 Profile E-mail  
 
 
PostPosted: 24 Sep 2009 
Хиппей (support team)
User avatar
Joined: 30 Jul 2007
Posts: 113509
Lоcаtion: Киев (Kyiv, UA)
Age: 46
Name: Andrey
:thanx:

_________________


Top
 Profile E-mail  
 
 
PostPosted: 24 Sep 2009 
Генеральный thrasher
User avatar
Joined: 03 Oct 2008
Posts: 3713
Lоcаtion: Ханты-Мансийский АО
Age: 44
Name: Сергей
Только вчера посылка пришла...Еще пришли Meliah Rage - "Death Valley Dream",Ratos De Porao - "Onisciente Coletivo" и "Homem Inimigo Do Homem".


Top
 Profile  
 
 
PostPosted: 25 Sep 2009 
Пионэръ
Joined: 07 Apr 2009
Posts: 31
Lоcаtion: Deutschland
Age: 55
Name: Eric
Bolschoje Spasibo! THX for this classic one from an awesome band!!!


Top
 Profile  
 
 
PostPosted: 25 Sep 2009 
Хиппей (support team)
User avatar
Joined: 30 Jul 2007
Posts: 113509
Lоcаtion: Киев (Kyiv, UA)
Age: 46
Name: Andrey
thorbeorn wrote:
Ratos De Porao - "Onisciente Coletivo" и "Homem Inimigo Do Homem"

Не отказался бы... :oops:

_________________


Top
 Profile E-mail  
 
 
PostPosted: 25 Sep 2009 
DarkSage
User avatar
Joined: 24 Sep 2009
Posts: 1077
Lоcаtion: Moscow
Name: Оксана
Meliah Rage - Kill to Survive 1988 (EK 44447)

Image

Label: Epic Records
Страна: USA(Boston)
Стиль: Power/Thrash Metal
Размер: 243mb
Формат: FLAC

Tracklist
01 Beginning Of The End
02 Bates Motel
03 Meliah Rage
04 Deadly Existence
05 Enter The Darkness
06 Impaling Doom
07 The Pack

Band
Stuart Dowie - Drums
Jessie Johnson - Bass
Jim Koury - Guitar
Mike Munro - Vocals
Anthony Nichols - Guitar



Rip Info:
Ripping Software: Exact Audio Copy
Compression : Monkey's Audio 3.97
Full Scans included

* This rip was sent to me by a generous MeTaLMaDNeSS member. I share this on their behalf.

Quote:
Эта американская группа, образованная в 1984 году (по другим сведениям - зимой 85-86 годов) в Бостоне, выбрала себе звучное название, заимствованное из языка индейцев. Так они обозначали местность, лежащую к северу от Рио-Гранде. И хотя Бостон расположен достаточно далеко от Мелайа Рейдж, название привилось, а группа под этим именем успешно работает уже много лет.

В 1983 году в Бостон из Калифорнии приехала METALLICA, тогда восходящая звезда американского трэша, и своей игрой произвела неизгладимое впечатление на двух друзей, гитаристов-любителей Тони Николса (Tony Nichols) и Джима Коури (Jim Koury). Тотчас они стали подбирать музыкантов для своей группы, состав которой стабилизировался в 1986 году: Николе и Коури - гитары, Джесси Джонсон (Jesse Johnson) - бас, Стюарт Дауи (Stuart Dowie) - ударные, Майк Манро (Mike Munro) - вокал. Первая демонстрационная запись этого состава привлекла внимание фирмы "Epic", и ее президент лично подписал контракт с молодыми музыкантами. Эта компания первой среди гигантов звукозаписи решилась на выпуск трэшевого диска Видимо, триумф METALLICA и MEGADETH, записывавшихся на "Roadrunner", не давал покоя не только музыкантам, но и бизнесменам. Наверное, поэтому в музыке дебютной пластинки группы и особенно в вокальных партиях Манро явно прослеживалась ориентация на калифорнийских трэшеров. "Epic" ужасно боялась потерять репутацию солидной компании, поэтому тексты песен альбома подверглись пристрастной цензуре. Дело дошло до того, что боссы чуть не запретили включить в альбом заглавную композицию "Kill As One" ("Убей всех поголовно"), ранее звучавшую на рекламных лентах и одну из лучших у MELIAH RAGE. Остальные вещи не вызвали споров. В большинстве своем представляют собой размеренный коммерческий трэш, порой переходящий в пауэр-метал. Наиболее характерны для этого звучания композиции "Beginning Of The End", "Enter The Darkness" и "The Pack" - оно чуть легче MORTAL SIN и чуть тяжелее GANG GREEN.

*************************
Источник

_________________
Image,Image


Top
 Profile E-mail  
 
 
PostPosted: 25 Sep 2009 
Генеральный thrasher
User avatar
Joined: 03 Oct 2008
Posts: 3713
Lоcаtion: Ханты-Мансийский АО
Age: 44
Name: Сергей
Альбом уже есть на форуме...


Top
 Profile  
 
 
PostPosted: 25 Sep 2009 
DarkSage
User avatar
Joined: 24 Sep 2009
Posts: 1077
Lоcаtion: Moscow
Name: Оксана
блин, я думала- пао алфавиту... удалите эту тему )))

_________________
Image,Image


Top
 Profile E-mail  
 
 
PostPosted: 25 Sep 2009 
Генеральный thrasher
User avatar
Joined: 03 Oct 2008
Posts: 3713
Lоcаtion: Ханты-Мансийский АО
Age: 44
Name: Сергей
Оксана,не переживай.Пользуйся поиском...


Top
 Profile  
 
 
PostPosted: 25 Sep 2009 
DarkSage
User avatar
Joined: 24 Sep 2009
Posts: 1077
Lоcаtion: Moscow
Name: Оксана
ничо, освоюсь..

_________________
Image,Image


Top
 Profile E-mail  
 
 
PostPosted: 25 Sep 2009 
Хиппей (support team)
User avatar
Joined: 30 Jul 2007
Posts: 113509
Lоcаtion: Киев (Kyiv, UA)
Age: 46
Name: Andrey
Нормуль, перенесу пост в старую тему. Будет как запасной вариант. Спасибо :thanx:

Эта темка уходит в ДП :pardon:

_________________


Top
 Profile E-mail  
 
 
PostPosted: 28 Sep 2009 
Генеральный thrasher
User avatar
Joined: 03 Oct 2008
Posts: 3713
Lоcаtion: Ханты-Мансийский АО
Age: 44
Name: Сергей
Meliah Rage - Death Valley Dream 1996 (2007 LM498)

Image

Label: Locomotive Records
Style: Power Thrash
Country: U.S.A.
Format: Flac+Cue+Log
Size: 273Mb

Tracklist:
1. Death Valley Dream 02:37
2. Stranger 02:44
3. Media 01:53
4. Blacksmith 03:00
5. Wear and Tear 02:07
6. Madness and Poetry 03:42
7. Crow 02:58
8. Possessing Judgement 03:29
9. War Journal 02:41
10. Prideland 04:06
11. The Last Detail 06:23

Line-Up:
Mike Munro - vocals
Anthony Nichols - guitar
Jim Koury - guitar
Bob Mayo - bass
Dave Barcos - drums

Cue
REM GENRE "Heavy Metal"
REM DATE 2007
REM DISCID 97084E0B
REM COMMENT "ExactAudioCopy v0.99pb4"
PERFORMER "Meliah Rage"
TITLE "Death Valley Dream"
FILE "Meliah Rage - Death Valley Dream.flac" WAVE
TRACK 01 AUDIO
TITLE "Death Valley Dream"
PERFORMER "Meliah Rage"
INDEX 01 00:00:00
TRACK 02 AUDIO
TITLE "Stranger"
PERFORMER "Meliah Rage"
INDEX 01 02:37:71
TRACK 03 AUDIO
TITLE "Media"
PERFORMER "Meliah Rage"
INDEX 01 05:23:26
TRACK 04 AUDIO
TITLE "Blacksmith"
PERFORMER "Meliah Rage"
INDEX 01 07:16:41
TRACK 05 AUDIO
TITLE "Wear + Tear"
PERFORMER "Meliah Rage"
INDEX 01 10:16:71
TRACK 06 AUDIO
TITLE "Madness And Poetry"
PERFORMER "Meliah Rage"
INDEX 01 12:23:73
TRACK 07 AUDIO
TITLE "Crow"
PERFORMER "Meliah Rage"
INDEX 01 16:06:38
TRACK 08 AUDIO
TITLE "Posessing Judgement"
PERFORMER "Meliah Rage"
INDEX 01 19:03:35
TRACK 09 AUDIO
TITLE "War Journal"
PERFORMER "Meliah Rage"
INDEX 01 22:31:23
TRACK 10 AUDIO
TITLE "Prideland"
PERFORMER "Meliah Rage"
INDEX 01 25:11:65
TRACK 11 AUDIO
TITLE "The Last Detail"
PERFORMER "Meliah Rage"
INDEX 01 29:17:73

Log
Exact Audio Copy V0.99 prebeta 4 from 23. January 2008

Отчёт EAC об извлечении, выполненном 27. сентября 2009, 14:50

Meliah Rage / Death Valley Dream

Дисковод: ATAPI DVD A DH20A4P Adapter: 0 ID: 1

Режим чтения : Достоверность
Использование точного потока : Да
Отключение кэша аудио : Да
Использование указателей C2 : Нет

Коррекция смещения при чтении : 6
Способность читать области Lead-in и Lead-out : Нет
Заполнение пропущенных сэмплов тишиной : Да
Удаление блоков с тишиной в начале и конце : Нет
При вычислениях CRC использовались нулевые сэмплы : Нет
Интерфейс : Встроенный Win32-интерфейс для Win NT/2000

Выходной формат : Пользовательский кодировщик
Выбранный битрейт : 768 kBit/s
Качество : Высокий
Добавление ID3-тэга : Нет
Утилита сжатия : C:\Program Files\Exact Audio Copy\FLAC\FLAC.EXE
Дополнительные параметры : -6 -V -T "ARTIST=%a" -T "TITLE=%t" -T "ALBUM=%g" -T "DATE=%y" -T "TRACKNUMBER=%n" -T "GENRE=%m" -T "COMMENT=%e" %s -o %d


TOC извлечённого CD

Трек | Старт | Длительность | Начальный сектор | Конечный сектор
---------------------------------------------------------------------
1 | 0:00.00 | 2:37.71 | 0 | 11845
2 | 2:37.71 | 2:45.30 | 11846 | 24250
3 | 5:23.26 | 1:53.15 | 24251 | 32740
4 | 7:16.41 | 3:00.30 | 32741 | 46270
5 | 10:16.71 | 2:07.02 | 46271 | 55797
6 | 12:23.73 | 3:42.40 | 55798 | 72487
7 | 16:06.38 | 2:56.72 | 72488 | 85759
8 | 19:03.35 | 3:27.63 | 85760 | 101347
9 | 22:31.23 | 2:40.42 | 101348 | 113389
10 | 25:11.65 | 4:06.08 | 113390 | 131847
11 | 29:17.73 | 6:08.45 | 131848 | 159492


Характеристики диапазона извлечения и сообщения об ошибках

Выбранный диапазон

Имя файла D:\Lossless Music\Meliah Rage - Death Valley Dream.wav

Пиковый уровень 98.0 %
Качество диапазона 99.9 %
CRC копии F0BA4C7E
Копирование... OK

Ошибок не произошло


AccurateRip: сводка

Трек 1 нет в базе данных
Трек 2 нет в базе данных
Трек 3 нет в базе данных
Трек 4 нет в базе данных
Трек 5 нет в базе данных
Трек 6 нет в базе данных
Трек 7 нет в базе данных
Трек 8 нет в базе данных
Трек 9 нет в базе данных
Трек 10 нет в базе данных
Трек 11 нет в базе данных

Ни одного трека нет в базе AccurateRip

Megaupload


Top
 Profile  
 
Display posts from previous:  Sort by  
Post new topic Reply to topic  [ 180 posts ]  Go to page Previous  1, 2, 3, 4, 5, 6 ... 9  Next

All times are UTC + 3 hours


Who is online

Users browsing this forum: No registered users and 1 guest


You cannot post new topics in this forum
You cannot reply to topics in this forum
You cannot edit your posts in this forum
You cannot delete your posts in this forum
You cannot post attachments in this forum

Search for:
Яндекс.Метрика
Powered by phpBB © 2000, 2002, 2005, 2007 phpBB Group