\m/ 80's metal \m/

Информационно-аналитический форум "80 см пыли" (In Search We Trust) "У нас никто никуда не спешит"
Me For You - http://me-4u.com
It is currently 17 Feb 2019

All times are UTC + 3 hours

Spoiler
Chat - temporary registration for foreign users (please leave your application here)





Forum rules


Уважаемые пользователи ресурса, друзья, коллеги и гости нашего форума. Данный раздел конференции создан с целью рафинации, и посвящён такому стилевому направлению в музыке, как Thrash Metal во всех его проявлениях и ипостасях, а иногда и переходящему на пограничные стили Speed, Power, Groove, Crossover, MDM и т.п.
Главное правило здесь одно: Одна группа – одна тема! Всё остальное созвучно основным нормам поведения на конференции.
Шаблон оформления тем в этом подфоруме должен быть основан на данных сайта www.metal-archives.com и выглядеть следующим образом:

Группа (Страна) - Стилевые рамки - дискография
Slayer (USA) - Thrash Metal - дискография


В теме допустимо размещение всей информации касающейся данного коллектива: анонсы любых альбомов в любых форматах, запросы любых релизов коллектива (кроме релизов текущего и прошлого годов), обсуждения, обзоры, а в остальном всё как обычно. Уважаем друг друга, не грубим, соблюдаем нормы поведения на конференции, оформляем анонсы и запросы красиво и информативно, что бы модераторы не посчитали их троллингом, и не отправили куда положено, выписав Вам предупреждение или ещё что похуже… Прежде чем что-то запросить или запостить, пользуемся поиском! Пользуемся поиском! ПОЛЬЗУЕМСЯ ПОИСКОМ!!! Так слышно меня?.. :pardon:
Интересного, конструктивного и креативного общения! ;)



Post new topic Reply to topic  [ 24 posts ]  Go to page 1, 2  Next
Author Message
 
PostPosted: 10 Feb 2009 
Работнечег
User avatar
Joined: 28 Aug 2007
Posts: 5711
Lоcаtion: г. Москва
Age: 29
Name: Дима
Kayser - Kaiserhof (2005)

Image

Year: 2005
Style: Thrash Metal
Country: Sweden
Format: mp3,VBR kbps
Size: 66 Mb

Line-Up:
Spice - Lead Vocals (Spiritual Beggars, Spice And The RJ Band , The Mushroom River Band, Aeon)
Mattias Svensson - Guitars (The Defaced)
Bob Ruben - Drums and Percussion (The Mushroom River Band, Claustrophobia, Comfort Mind, Milou, Androgyne, Moody Alan)
Emil Sandin - Bass (Poseidon (Swe), Chaeostribe)
Jokke Pettersson - Guitars (Poseidon (Swe))


Tracklist:
1. 1919 02:05
2. Lost Cause 02:53
3. Good Citizen 03:48
4. Noble Is Your Blood 03:44
5. 7 Days to Sink 03:41
6. Like a Drunk Christ 05:35
7. Cemented Lies 03:12
8. The Waltz 04:59
9. Rafflesia 03:46
10. Perfect 02:34
Total playing time 36:17

ifolder


Top
 Profile E-mail  
 
 
PostPosted: 25 Sep 2016 
консэрваторъ
Joined: 11 Aug 2007
Posts: 16559
Lоcаtion: Псков
Age: 44
Name: Сергей
Ньюалбум... :vic: :arrov: https://listenable-records.bandcamp.com ... -of-sanity

_________________
THRASH 'EM ALL


Top
 Profile E-mail  
 
 
PostPosted: 26 Sep 2016 
Alive Again
User avatar
Joined: 17 Dec 2008
Posts: 4747
Lоcаtion: Курск Воронеж Оскол
Age: 44
Name: Дмитрий

:thanx: интересно, послушаю.


Top
 Profile E-mail  
 
 
PostPosted: 26 Sep 2016 
Доктор энтомологии
User avatar
Joined: 22 Jan 2009
Posts: 9604
Lоcаtion: Даугавпилс
Age: 43
Name: Алексей
Суровый такой неспешный трэш играют именитые мужики на новом альбоме, в меру мелодичный, в меру техничный, в меру стандартный. Мне понравилось


Top
 Profile  
 
 
PostPosted: 27 Sep 2016 
Хиппей (support team)
User avatar
Joined: 30 Jul 2007
Posts: 110295
Lоcаtion: Киев (Kyiv, UA)
Age: 45
Name: Andrey
Ой, а я и первый не слушал...
Только подобрался к топику.

_________________


Top
 Profile E-mail  
 
 
PostPosted: 27 Sep 2016 
Хиппей (support team)
User avatar
Joined: 30 Jul 2007
Posts: 110295
Lоcаtion: Киев (Kyiv, UA)
Age: 45
Name: Andrey
Ага, ага...

:arrow: https://rutracker.org/forum/viewtopic.php?t=4710909
:arrow: https://rutracker.org/forum/viewtopic.php?t=4489461
:arrow: https://rutracker.org/forum/viewtopic.php?t=4710909

_________________


Top
 Profile E-mail  
 
 
PostPosted: 28 Jan 2017 
Работнечег
User avatar
Joined: 28 Aug 2007
Posts: 5711
Lоcаtion: г. Москва
Age: 29
Name: Дима
Image

Label: Scarlet Records
Genre: Thrash Metal
Country: Germany
Format: Flac + Log + Cue + Covers
Size: 107 Mb

Tracklist:
1. Good Citizen 03:42
2. Lost in the Mud 03:10
3. Fall 02:04
4. Propaganda (non-album track) 05:01

LOG
Exact Audio Copy V0.99 prebeta 5 from 4. May 2009

EAC extraction logfile from 21. January 2017, 17:14

Kayser / The Good Citizen EP

Used drive : PIONEER DVD-RW DVR-221 Adapter: 2 ID: 1

Read mode : Secure
Utilize accurate stream : Yes
Defeat audio cache : Yes
Make use of C2 pointers : No

Read offset correction : 6
Overread into Lead-In and Lead-Out : No
Fill up missing offset samples with silence : Yes
Delete leading and trailing silent blocks : No
Null samples used in CRC calculations : Yes
Used interface : Native Win32 interface for Win NT & 2000

Used output format : User Defined Encoder
Selected bitrate : 32 kBit/s
Quality : High
Add ID3 tag : No
Command line compressor : C:\Program Files\Exact Audio Copy\Flac\flac.exe
Additional command line options : -6 -V %s


TOC of the extracted CD

Track | Start | Length | Start sector | End sector
---------------------------------------------------------
1 | 0:00.00 | 3:42.67 | 0 | 16716
2 | 3:42.67 | 3:10.70 | 16717 | 31036
3 | 6:53.62 | 2:04.50 | 31037 | 40386
4 | 8:58.37 | 4:59.20 | 40387 | 62831
5 | 16:29.57 | 4:19.06 | 74232 | 93662


Range status and errors

Selected range

Filename D:\Музыка\Lossless\Kayser - The Good Citizen EP (2006)\Kayser - The Good Citizen EP.wav

Peak level 98.7 %
Range quality 100.0 %
Copy CRC 2EAA4927
Copy OK

No errors occurred


AccurateRip summary

Track 1 accurately ripped (confidence 2) [3A1C7BB1]
Track 2 accurately ripped (confidence 2) [190FAAB6]
Track 3 accurately ripped (confidence 2) [C4A7FD49]
Track 4 accurately ripped (confidence 3) [C653FF24]

All tracks accurately ripped

End of status report

CUE
REM GENRE "Thrash Metal"
REM DATE 2006
REM DISCID 3004E005
REM COMMENT "ExactAudioCopy v0.99pb5"
PERFORMER "Kayser"
TITLE "The Good Citizen EP"
FILE "Kayser - The Good Citizen EP.flac" WAVE
TRACK 01 AUDIO
TITLE "Good Citizen"
PERFORMER "Kayser"
INDEX 01 00:00:00
TRACK 02 AUDIO
TITLE "Lost In The Mud"
PERFORMER "Kayser"
INDEX 01 03:42:67
TRACK 03 AUDIO
TITLE "Fall"
PERFORMER "Kayser"
INDEX 00 06:51:45
INDEX 01 06:53:62
TRACK 04 AUDIO
TITLE "Propaganda"
PERFORMER "Kayser"
INDEX 00 08:57:10
INDEX 01 08:58:37



Yadi

Может быть кому-нибудь пригодится. Не олдскул, но приятный музон, мне они нравятся.


Last edited by church on 30 Oct 2017, edited 1 time in total.

Top
 Profile E-mail  
 
 
PostPosted: 28 Jan 2017 
консэрваторъ
Joined: 11 Aug 2007
Posts: 16559
Lоcаtion: Псков
Age: 44
Name: Сергей
И этих тож приберу... :thanx: :thanx:

_________________
THRASH 'EM ALL


Top
 Profile E-mail  
 
 
PostPosted: 28 Jan 2017 
Генеральный thrasher
User avatar
Joined: 03 Oct 2008
Posts: 3593
Lоcаtion: Ханты-Мансийский АО
Age: 43
Name: Сергей
Давно на трэкере раздаю вместе с двумя полнометражниками


Top
 Profile  
 
 
PostPosted: 28 Jan 2017 
Прокъмитолист
User avatar
Joined: 12 Aug 2007
Posts: 6527
Lоcаtion: Санктъ-Петербуркъ
Age: 51
Name: Олекъ
у меня вроде нет такого. спасибо, Дим :thanx:

_________________
прокъметол - это музыко, от которово есть прок (ы)


Top
 Profile  
 
 
PostPosted: 02 Feb 2017 
консэрваторъ
Joined: 11 Aug 2007
Posts: 16559
Lоcаtion: Псков
Age: 44
Name: Сергей
Чего-то меня совсем не прёт... :(

Опечаленная печаль какая-то... это я щас прошлогодний слушаю, ипиха тоже не попёрла... :(

_________________
THRASH 'EM ALL


Top
 Profile E-mail  
 
 
PostPosted: 02 Feb 2017 
консэрваторъ
Joined: 11 Aug 2007
Posts: 16559
Lоcаtion: Псков
Age: 44
Name: Сергей
Да, однозначно, группу в помойку... это ж надо, 53 минуты (2016-ый) оттянуть кота за яйца и не оторвать по итогам!.. :esel:

_________________
THRASH 'EM ALL


Top
 Profile E-mail  
 
 
PostPosted: 30 Oct 2017 
Работнечег
User avatar
Joined: 28 Aug 2007
Posts: 5711
Lоcаtion: г. Москва
Age: 29
Name: Дима
Kayser - Kaiserhof (2005)(Japan Edition)

Image

Label: Gencross Records
Genre: Thrash Metal
Country: Germany
Format: Flac + Log + Cue + Covers
Size: 432 Mb

Line-Up:
Spice - Lead Vocals (Spiritual Beggars, Spice And The RJ Band , The Mushroom River Band, Aeon)
Mattias Svensson - Guitars (The Defaced)
Bob Ruben - Drums and Percussion (The Mushroom River Band, Claustrophobia, Comfort Mind, Milou, Androgyne, Moody Alan)
Emil Sandin - Bass (Poseidon (Swe), Chaeostribe)
Jokke Pettersson - Guitars (Poseidon (Swe))


Tracklist:
1. 1919 02:05
2. Lost Cause 02:53
3. Good Citizen 03:48
4. Noble Is Your Blood 03:44
5. 7 Days to Sink 03:41
6. Like a Drunk Christ 05:35
7. Cemented Lies 03:12
8. The Waltz 04:59
9. Rafflesia 03:46
10. Perfect 02:34
11. Lost Cause (demo version) 02:49
12. Noble Is Your Blood (demo version) 03:41
13. Rafflesia (demo version) 03:51
14. The Waltz (demo version) 05:10
15. Perfect (demo version) 03:01

LOG
Exact Audio Copy V0.99 prebeta 5 from 4. May 2009

EAC extraction logfile from 15. October 2017, 17:09

Kayser / Kaiserhof (Japan Version)

Used drive : PIONEER DVD-RW DVR-221 Adapter: 2 ID: 1

Read mode : Secure
Utilize accurate stream : Yes
Defeat audio cache : Yes
Make use of C2 pointers : No

Read offset correction : 6
Overread into Lead-In and Lead-Out : No
Fill up missing offset samples with silence : Yes
Delete leading and trailing silent blocks : No
Null samples used in CRC calculations : Yes
Used interface : Native Win32 interface for Win NT & 2000

Used output format : User Defined Encoder
Selected bitrate : 32 kBit/s
Quality : High
Add ID3 tag : No
Command line compressor : C:\Program Files\Exact Audio Copy\Flac\flac.exe
Additional command line options : -6 -V %s


TOC of the extracted CD

Track | Start | Length | Start sector | End sector
---------------------------------------------------------
1 | 0:00.00 | 2:05.47 | 0 | 9421
2 | 2:05.47 | 2:51.41 | 9422 | 22287
3 | 4:57.13 | 3:41.40 | 22288 | 38902
4 | 8:38.53 | 3:46.19 | 38903 | 55871
5 | 12:24.72 | 5:34.65 | 55872 | 80986
6 | 17:59.62 | 3:38.68 | 80987 | 97404
7 | 21:38.55 | 3:10.67 | 97405 | 111721
8 | 24:49.47 | 4:57.21 | 111722 | 134017
9 | 29:46.68 | 3:45.14 | 134018 | 150906
10 | 33:32.07 | 2:33.63 | 150907 | 162444
11 | 36:05.70 | 2:49.18 | 162445 | 175137
12 | 38:55.13 | 3:40.71 | 175138 | 191708
13 | 42:36.09 | 3:50.45 | 191709 | 209003
14 | 46:26.54 | 5:10.11 | 209004 | 232264
15 | 51:36.65 | 3:00.67 | 232265 | 245831
16 | 57:09.57 | 4:19.27 | 257232 | 276683


Range status and errors

Selected range

Filename D:\Музыка\Lossless\Kayser - Kaiserhof (Japan Version)(2005)\Kayser - Kaiserhof.wav

Peak level 100.0 %
Range quality 100.0 %
Copy CRC 64F5703F
Copy OK

No errors occurred


AccurateRip summary

Track 1 accurately ripped (confidence 1) [60CE147C]
Track 2 accurately ripped (confidence 1) [D046252A]
Track 3 accurately ripped (confidence 1) [7F4417B4]
Track 4 accurately ripped (confidence 1) [1D42A025]
Track 5 accurately ripped (confidence 1) [D26DF2C7]
Track 6 accurately ripped (confidence 1) [858CA8E7]
Track 7 accurately ripped (confidence 1) [9DEC257C]
Track 8 accurately ripped (confidence 1) [82E3C027]
Track 9 accurately ripped (confidence 1) [1D981B75]
Track 10 accurately ripped (confidence 1) [616E25CF]
Track 11 accurately ripped (confidence 1) [F1412669]
Track 12 accurately ripped (confidence 1) [2F928BCF]
Track 13 accurately ripped (confidence 1) [D0C0088B]
Track 14 accurately ripped (confidence 1) [39FBCDC6]
Track 15 accurately ripped (confidence 1) [F143B923]

All tracks accurately ripped

End of status report

CUE
REM GENRE "Thrash Metal"
REM DATE 2005
REM DISCID DF0E6910
REM COMMENT "ExactAudioCopy v0.99pb5"
PERFORMER "Kayser"
TITLE "Kaiserhof (Japan Version)"
FILE "Kayser - Kaiserhof.flac" WAVE
TRACK 01 AUDIO
TITLE "1919"
PERFORMER "Kayser"
INDEX 01 00:00:00
TRACK 02 AUDIO
TITLE "Lost Cause"
PERFORMER "Kayser"
INDEX 01 02:05:47
TRACK 03 AUDIO
TITLE "Good Citizen"
PERFORMER "Kayser"
INDEX 01 04:57:13
TRACK 04 AUDIO
TITLE "Noble Is Your Blood"
PERFORMER "Kayser"
INDEX 01 08:38:53
TRACK 05 AUDIO
TITLE "7 Days To Sink"
PERFORMER "Kayser"
INDEX 01 12:24:72
TRACK 06 AUDIO
TITLE "Like A Drunk Christ"
PERFORMER "Kayser"
INDEX 01 17:59:62
TRACK 07 AUDIO
TITLE "Cemented Lies"
PERFORMER "Kayser"
INDEX 01 21:38:55
TRACK 08 AUDIO
TITLE "The Waltz"
PERFORMER "Kayser"
INDEX 01 24:49:47
TRACK 09 AUDIO
TITLE "Rafflesia"
PERFORMER "Kayser"
INDEX 01 29:46:68
TRACK 10 AUDIO
TITLE "Perfect"
PERFORMER "Kayser"
INDEX 01 33:32:07
TRACK 11 AUDIO
TITLE "Lost Cause (DEMO)"
PERFORMER "Kayser"
INDEX 01 36:05:70
TRACK 12 AUDIO
TITLE "Noble Is Your Blood (DEMO)"
PERFORMER "Kayser"
INDEX 01 38:55:13
TRACK 13 AUDIO
TITLE "Rafflesia (DEMO)"
PERFORMER "Kayser"
INDEX 01 42:36:09
TRACK 14 AUDIO
TITLE "The Waltz (DEMO)"
PERFORMER "Kayser"
INDEX 01 46:26:54
TRACK 15 AUDIO
TITLE "Perfect (DEMO)"
PERFORMER "Kayser"
INDEX 01 51:36:65


Yadi

Японца вроде не выкладывали) Вроде добротный альбом!


Top
 Profile E-mail  
 
 
PostPosted: 30 Oct 2017 
Хиппей (support team)
User avatar
Joined: 30 Jul 2007
Posts: 110295
Lоcаtion: Киев (Kyiv, UA)
Age: 45
Name: Andrey
church wrote:
Kayser - Kaiserhof (2005)(Japan Edition)

:thanx:

_________________


Top
 Profile E-mail  
 
 
PostPosted: 30 Oct 2017 
Хиппей (support team)
User avatar
Joined: 30 Jul 2007
Posts: 110295
Lоcаtion: Киев (Kyiv, UA)
Age: 45
Name: Andrey
church wrote:
Kayser (Germany) 1 EP

:thanx:

_________________


Top
 Profile E-mail  
 
 
PostPosted: 31 Oct 2017 
консэрваторъ
Joined: 11 Aug 2007
Posts: 16559
Lоcаtion: Псков
Age: 44
Name: Сергей
Темы объединены и перетянут... тока зачем Вы меня с утра запутали с...
church wrote:
Kayser (Germany) 1 EP

?.. :arrov: https://www.metal-archives.com/bands/Kayser/21177 шведы жешь...
Попробую ещё раз поменять своё мнение о них... начну с дебютника, спасибо, Дима!!.

_________________
THRASH 'EM ALL


Top
 Profile E-mail  
 
 
PostPosted: 31 Oct 2017 
Работнечег
User avatar
Joined: 28 Aug 2007
Posts: 5711
Lоcаtion: г. Москва
Age: 29
Name: Дима
Ой, точно шведы! Сорри за ошибку!


Top
 Profile E-mail  
 
 
PostPosted: 31 Oct 2017 
Генеральный thrasher
User avatar
Joined: 03 Oct 2008
Posts: 3593
Lоcаtion: Ханты-Мансийский АО
Age: 43
Name: Сергей
Спасибо,Дим,за япошку!


Top
 Profile  
 
 
PostPosted: 02 Nov 2017 
консэрваторъ
Joined: 11 Aug 2007
Posts: 16559
Lоcаtion: Псков
Age: 44
Name: Сергей
С удовольствием слушаю демо, что в дописи на Димином японце... кого же мне они напоминают?.. Таких же молотобойцев, особенно вокалом... :dash:
В песне The Waltz есть артефактик...

Image
Вспомнил!.. Мишшугу!.. :lob:

_________________
THRASH 'EM ALL


Top
 Profile E-mail  
 
 
PostPosted: 02 Nov 2017 
консэрваторъ
Joined: 11 Aug 2007
Posts: 16559
Lоcаtion: Псков
Age: 44
Name: Сергей
Дебютником ажно восхищён!.. Сочный молотобойный альбом, вокалист отошёл от манеры пения Кидмана из Мишутки, круть вопчем!.. :true:

_________________
THRASH 'EM ALL


Top
 Profile E-mail  
 
Display posts from previous:  Sort by  
Post new topic Reply to topic  [ 24 posts ]  Go to page 1, 2  Next

All times are UTC + 3 hours


Who is online

Users browsing this forum: No registered users and 2 guests


You cannot post new topics in this forum
You cannot reply to topics in this forum
You cannot edit your posts in this forum
You cannot delete your posts in this forum
You cannot post attachments in this forum

Search for:
Яндекс.Метрика
Powered by phpBB © 2000, 2002, 2005, 2007 phpBB Group