\m/ 80's metal \m/

Информационно-аналитический форум "80 см пыли" (In Search We Trust) "У нас никто никуда не спешит"
Me For You - http://me-4u.com
It is currently 15 Oct 2019

All times are UTC + 3 hours

Spoiler
Chat - temporary registration for foreign users (please leave your application here)





Forum rules


Уважаемые пользователи ресурса, друзья, коллеги и гости нашего форума. Данный раздел конференции создан с целью рафинации, и посвящён такому стилевому направлению в музыке, как Thrash Metal во всех его проявлениях и ипостасях, а иногда и переходящему на пограничные стили Speed, Power, Groove, Crossover, MDM и т.п.
Главное правило здесь одно: Одна группа – одна тема! Всё остальное созвучно основным нормам поведения на конференции.
Шаблон оформления тем в этом подфоруме должен быть основан на данных сайта www.metal-archives.com и выглядеть следующим образом:

Группа (Страна) - Стилевые рамки - дискография
Slayer (USA) - Thrash Metal - дискография


В теме допустимо размещение всей информации касающейся данного коллектива: анонсы любых альбомов в любых форматах, запросы любых релизов коллектива (кроме релизов текущего и прошлого годов), обсуждения, обзоры, а в остальном всё как обычно. Уважаем друг друга, не грубим, соблюдаем нормы поведения на конференции, оформляем анонсы и запросы красиво и информативно, что бы модераторы не посчитали их троллингом, и не отправили куда положено, выписав Вам предупреждение или ещё что похуже… Прежде чем что-то запросить или запостить, пользуемся поиском! Пользуемся поиском! ПОЛЬЗУЕМСЯ ПОИСКОМ!!! Так слышно меня?.. :pardon:
Интересного, конструктивного и креативного общения! ;)

Image



Post new topic Reply to topic  [ 79 posts ]  Go to page Previous  1, 2, 3, 4  Next
Author Message
 
PostPosted: 11 Oct 2010 
консэрваторъ
User avatar
Joined: 11 Aug 2007
Posts: 17297
Lоcаtion: Псков
Age: 45
Name: Сергей
Не плохо, не плохо... кстати на майспахе доступно к прослушиванию и скачиваню ажно 4 композиции с грядущего... :true:

_________________
THRASH 'EM ALL


Top
 Profile E-mail  
 
 
PostPosted: 29 Nov 2010 
Пионэръ
Joined: 29 Nov 2010
Posts: 21
Lоcаtion: Viet Nam
Name: Nguyen Hoang Long
Image

Tracklist:

1. Indestructible Noise Command 08:15
2. The Grip of Death 07:42
3. War Not Words 05:17
4. Anarchy (The Pursuit of Happiness) 05:51
5. Razorback 07:19
6. Fists from the Mighty 04:29
7. Fear 06:01
8. Passageway Through Purgatory 04:43

Pls help me, i can't speak Russian :(


Top
 Profile E-mail  
 
 
PostPosted: 29 Nov 2010 
спирт 100%
User avatar
Joined: 22 Sep 2008
Posts: 4473
Age: 48
Name: Саня
http://rutracker.org/forum/viewtopic.php?t=3272102


Top
 Profile  
 
 
PostPosted: 30 Nov 2010 
Пионэръ
Joined: 29 Nov 2010
Posts: 21
Lоcаtion: Viet Nam
Name: Nguyen Hoang Long
tks :thanx:


Top
 Profile E-mail  
 
 
PostPosted: 27 Jun 2017 
Генеральный thrasher
User avatar
Joined: 03 Oct 2008
Posts: 3738
Lоcаtion: Ханты-Мансийский АО
Age: 44
Name: Сергей
Image

Year:1987 (2015 Re-Issue)
Style:Thrash Metal
Country:U.S.A.
Archive:Flac+Cue+Log+Scans
Source:my CD
Size:355Mb
Label:Dark Symphonies

Tracklist:
01. I.N.C. 08:20
02. The Grip Of Death 07:47
03. War Not Words 05:19
04. Anarchy (The Pursuit Of Happiness) 05:55
05. Razorback 07:22
06. Fists From the Mighty 04:32
07. Fear 06:06
08. Passageway Through Purgatory 04:45

"Cue"
REM GENRE "Thrash Metal"
REM DATE 1988
REM DISCID 710BBE08
REM COMMENT "ExactAudioCopy v1.1"
PERFORMER "Indestructible Noise Command"
TITLE "Razorback"
FILE "Indestructible Noise Command - Razorback.flac" WAVE
TRACK 01 AUDIO
TITLE "I.N.C."
PERFORMER "Indestructible Noise Command"
INDEX 01 00:00:00
TRACK 02 AUDIO
TITLE "The Grip of Death"
PERFORMER "Indestructible Noise Command"
INDEX 00 08:17:33
INDEX 01 08:20:33
TRACK 03 AUDIO
TITLE "War Not Words"
PERFORMER "Indestructible Noise Command"
INDEX 01 16:07:50
TRACK 04 AUDIO
TITLE "Anarchy (The Pursuit of Happiness)"
PERFORMER "Indestructible Noise Command"
INDEX 00 21:23:06
INDEX 01 21:27:06
TRACK 05 AUDIO
TITLE "Razorback"
PERFORMER "Indestructible Noise Command"
INDEX 00 27:16:65
INDEX 01 27:21:65
TRACK 06 AUDIO
TITLE "Fists From the Mighty"
PERFORMER "Indestructible Noise Command"
INDEX 00 34:40:62
INDEX 01 34:43:62
TRACK 07 AUDIO
TITLE "Fear"
PERFORMER "Indestructible Noise Command"
INDEX 00 39:11:50
INDEX 01 39:15:50
TRACK 08 AUDIO
TITLE "Passage Through Purgatory"
PERFORMER "Indestructible Noise Command"
INDEX 00 45:18:48
INDEX 01 45:21:48

"Log"
Exact Audio Copy V1.1 from 23. June 2015

Отчёт EAC об извлечении, выполненном 14. июня 2017, 10:10

Indestructible Noise Command / Razorback

Дисковод: HL-DT-STDVDRAM GTA0N Adapter: 1 ID: 0

Режим чтения : Достоверность
Использование точного потока : Да
Отключение кэша аудио : Да
Использование указателей C2 : Нет

Коррекция смещения при чтении : 102
Способность читать области Lead-in и Lead-out : Нет
Заполнение пропущенных сэмплов тишиной : Да
Удаление блоков с тишиной в начале и конце : Нет
При вычислениях CRC использовались нулевые сэмплы : Да
Интерфейс : Встроенный Win32-интерфейс для Win NT/2000

Выходной формат : Пользовательский кодировщик
Выбранный битрейт : 768 kBit/s
Качество : Высокий
Добавление ID3-тега : Нет
Утилита сжатия : C:\Program Files (x86)\Exact Audio Copy\FLAC\FLAC.EXE
Дополнительные параметры : -V -8 -T "Date=%year%" -T "Genre=%genre%" %source%


TOC извлечённого CD

Трек | Старт | Длительность | Начальный сектор | Конечный сектор
---------------------------------------------------------------------
1 | 0:00.00 | 8:20.33 | 0 | 37532
2 | 8:20.33 | 7:47.17 | 37533 | 72574
3 | 16:07.50 | 5:19.31 | 72575 | 96530
4 | 21:27.06 | 5:54.59 | 96531 | 123139
5 | 27:21.65 | 7:21.72 | 123140 | 156286
6 | 34:43.62 | 4:31.63 | 156287 | 176674
7 | 39:15.50 | 6:05.73 | 176675 | 204122
8 | 45:21.48 | 4:44.62 | 204123 | 225484


Характеристики диапазона извлечения и сообщения об ошибках

Выбранный диапазон

Имя файла C:\Users\магазин\Music\Indestructible Noise Command - Razorback.wav

Пиковый уровень 100.0 %
Скорость извлечения 3.9 X
Качество диапазона 100.0 %
CRC теста E16A7A1A
CRC копии E16A7A1A
Копирование... OK

Ошибок не произошло


AccurateRip: сводка

Трек 1 : извлечено точно (доверие 2) [06AB61B9] (AR v2)
Трек 2 : извлечено точно (доверие 2) [05E4C96D] (AR v2)
Трек 3 : извлечено точно (доверие 2) [383AA40B] (AR v2)
Трек 4 : извлечено точно (доверие 2) [6E369E8D] (AR v2)
Трек 5 : извлечено точно (доверие 2) [5A02F56D] (AR v2)
Трек 6 : извлечено точно (доверие 2) [1B0F5B58] (AR v2)
Трек 7 : извлечено точно (доверие 2) [4F58DCAC] (AR v2)
Трек 8 : извлечено точно (доверие 2) [69C05CDF] (AR v2)

Все треки извлечены точно

Конец отчёта

---- CUETools DB Plugin V2.1.6

[CTDB TOCID: gFgrHOZF86IYpW99qGKtFEbZx7Y-] found
Submit result: already submitted
Track | CTDB Status
1 | (4/4) Accurately ripped
2 | (4/4) Accurately ripped
3 | (4/4) Accurately ripped
4 | (4/4) Accurately ripped
5 | (4/4) Accurately ripped
6 | (4/4) Accurately ripped
7 | (4/4) Accurately ripped
8 | (4/4) Accurately ripped


Razorback

Image

Year:1988 (2015 Re-Issue)
Style:Thrash Metal
Country:U.S.A.
Archive:Flac+Cue+Log+Scans
Source:my CD
Size:343Mb
Label:Dark Symphonies

Tracklist:
01. Dry Heave 04:25
02. Bed Time Stories 06:10
03. What Are You Looking At? 06:46
04. Thunder Struck 04:50
05. The Visitor 05:15
06. Hypo-Dermic Coastline 06:32
07. Scammed Again 06:32
08. Just What I Needed / Candy-O (The Cars covers) 04:22

"Cue"
REM GENRE "Thrash Metal"
REM DATE 1988
REM DISCID 590A8308
REM COMMENT "ExactAudioCopy v1.1"
PERFORMER "Indestructible Noise Command"
TITLE "The Visitor "
FILE "Indestructible Noise Command - The Visitor.flac" WAVE
TRACK 01 AUDIO
TITLE "Dry Heave"
PERFORMER "Indestructible Noise Command"
INDEX 01 00:00:00
TRACK 02 AUDIO
TITLE "Bed Time Stories"
PERFORMER "Indestructible Noise Command"
INDEX 01 04:24:52
TRACK 03 AUDIO
TITLE "What Are You Looking At?"
PERFORMER "Indestructible Noise Command"
INDEX 01 10:34:30
TRACK 04 AUDIO
TITLE "Thunder Struck"
PERFORMER "Indestructible Noise Command"
INDEX 01 17:20:35
TRACK 05 AUDIO
TITLE "The Visitor"
PERFORMER "Indestructible Noise Command"
INDEX 00 22:09:49
INDEX 01 22:10:49
TRACK 06 AUDIO
TITLE "Scammed Again"
PERFORMER "Indestructible Noise Command"
INDEX 01 27:25:49
TRACK 07 AUDIO
TITLE "Hypo-Dermic Coastline "
PERFORMER "Indestructible Noise Command"
INDEX 01 33:57:52
TRACK 08 AUDIO
TITLE "Just What I Needed / Candy-O"
PERFORMER "Indestructible Noise Command"
INDEX 01 40:29:19

"Log"
Exact Audio Copy V1.1 from 23. June 2015

Отчёт EAC об извлечении, выполненном 14. июня 2017, 9:20

Indestructible Noise Command / The Visitor

Дисковод: HL-DT-STDVDRAM GTA0N Adapter: 1 ID: 0

Режим чтения : Достоверность
Использование точного потока : Да
Отключение кэша аудио : Да
Использование указателей C2 : Нет

Коррекция смещения при чтении : 102
Способность читать области Lead-in и Lead-out : Нет
Заполнение пропущенных сэмплов тишиной : Да
Удаление блоков с тишиной в начале и конце : Нет
При вычислениях CRC использовались нулевые сэмплы : Да
Интерфейс : Встроенный Win32-интерфейс для Win NT/2000

Выходной формат : Пользовательский кодировщик
Выбранный битрейт : 768 kBit/s
Качество : Высокий
Добавление ID3-тега : Нет
Утилита сжатия : C:\Program Files (x86)\Exact Audio Copy\FLAC\FLAC.EXE
Дополнительные параметры : -V -8 -T "Date=%year%" -T "Genre=%genre%" %source%


TOC извлечённого CD

Трек | Старт | Длительность | Начальный сектор | Конечный сектор
---------------------------------------------------------------------
1 | 0:00.00 | 4:24.52 | 0 | 19851
2 | 4:24.52 | 6:09.53 | 19852 | 47579
3 | 10:34.30 | 6:46.05 | 47580 | 78034
4 | 17:20.35 | 4:50.14 | 78035 | 99798
5 | 22:10.49 | 5:15.00 | 99799 | 123423
6 | 27:25.49 | 6:32.03 | 123424 | 152826
7 | 33:57.52 | 6:31.42 | 152827 | 182193
8 | 40:29.19 | 4:21.70 | 182194 | 201838


Характеристики диапазона извлечения и сообщения об ошибках

Выбранный диапазон

Имя файла C:\Users\магазин\Music\Indestructible Noise Command - The Visitor.wav

Пиковый уровень 100.0 %
Скорость извлечения 3.8 X
Качество диапазона 99.9 %
CRC теста 374B4B6F
CRC копии 374B4B6F
Копирование... OK

Ошибок не произошло


AccurateRip: сводка

Трек 1 : извлечено точно (доверие 2) [EC7FE1B8] (AR v2)
Трек 2 : извлечено точно (доверие 2) [C033737A] (AR v2)
Трек 3 : извлечено точно (доверие 2) [592DAAAB] (AR v2)
Трек 4 : извлечено точно (доверие 2) [082A1116] (AR v2)
Трек 5 : извлечено точно (доверие 2) [F59CB7F3] (AR v2)
Трек 6 : извлечено точно (доверие 2) [BBA4F21E] (AR v2)
Трек 7 : извлечено точно (доверие 2) [D6CDE07B] (AR v2)
Трек 8 : извлечено точно (доверие 2) [5E07ABAF] (AR v2)

Все треки извлечены точно

Конец отчёта

---- CUETools DB Plugin V2.1.6

[CTDB TOCID: uAKmueCaC8htfY1MKaFaWnICopA-] found
Submit result: already submitted
Track | CTDB Status
1 | (4/4) Accurately ripped
2 | (4/4) Accurately ripped
3 | (4/4) Accurately ripped
4 | (4/4) Accurately ripped
5 | (4/4) Accurately ripped
6 | (4/4) Accurately ripped
7 | (4/4) Accurately ripped
8 | (4/4) Accurately ripped


The Visitor


Top
 Profile  
 
 
PostPosted: 27 Jun 2017 
Я набрал 1000 сообщений!
Joined: 09 Jul 2008
Posts: 3065
Age: 46
Name: Сергей
а звук от оригинала отличается?


Top
 Profile  
 
 
PostPosted: 27 Jun 2017 
Генеральный thrasher
User avatar
Joined: 03 Oct 2008
Posts: 3738
Lоcаtion: Ханты-Мансийский АО
Age: 44
Name: Сергей
А чёрт его знает,Серёг!


Top
 Profile  
 
 
PostPosted: 27 Jun 2017 
Хиппей (support team)
User avatar
Joined: 30 Jul 2007
Posts: 114829
Lоcаtion: Киев (Kyiv, UA)
Age: 46
Name: Andrey
О, красота какая :lob: :lob: :lob:
Звук? А зачем что-то менять, он был как раз андеграундным, за то и любим :meloman:

_________________


Top
 Profile E-mail  
 
 
PostPosted: 27 Jun 2017 
Хиппей (support team)
User avatar
Joined: 30 Jul 2007
Posts: 114829
Lоcаtion: Киев (Kyiv, UA)
Age: 46
Name: Andrey
thorbeorn wrote:
Razorback

:thanx:

mirror: Narod l


thorbeorn wrote:
The Visitor

:thanx:

mirror: Narod l

_________________


Top
 Profile E-mail  
 
 
PostPosted: 27 Jun 2017 
А может смените мне статус?..
User avatar
Joined: 02 Sep 2007
Posts: 580
Lоcаtion: г.Москва, Юго-Запад
Age: 50
Name: Сергей
:thanx:

З.Ы. Слава Богу от "оригинала" звук отличается. Там было такое гавно - просто страшно .... :benya:


Top
 Profile  
 
 
PostPosted: 27 Jun 2017 
Я набрал 1000 сообщений!
Joined: 09 Jul 2008
Posts: 3065
Age: 46
Name: Сергей
bloodfeast wrote:
Там было такое гавно - просто страшно ....

вот именно! потому и спросил


Top
 Profile  
 
 
PostPosted: 27 Jun 2017 
5-speed satisfactor
User avatar
Joined: 16 Feb 2009
Posts: 3774
Lоcаtion: New York, USA
Age: 41
Name: Leonid
Мой знакомый, который попросил меня очифирить его запечатанные винильчики Metal Massacre 9 и Heretic - Torture Knows No Boundary, так же попросил меня очифирить запечатанные альбомы INC. Но так как INC в своё время выходили на CD и рипы можно найти на тракторе, я отказался.

_________________
Death rules! Metal to all who oppose!


Top
 Profile  
 
 
PostPosted: 27 Jun 2017 
Прокъмитолист
User avatar
Joined: 12 Aug 2007
Posts: 6620
Lоcаtion: Санктъ-Петербуркъ
Age: 51
Name: Олекъ
ух, качнём переиздания :lob: спасибо, Серёга! :thanx:

_________________
прокъметол - это музыко, от которово есть прок (ы)


Top
 Profile  
 
 
PostPosted: 27 Jun 2017 
Генеральный thrasher
User avatar
Joined: 03 Oct 2008
Posts: 3738
Lоcаtion: Ханты-Мансийский АО
Age: 44
Name: Сергей
Да пожалуйста,Олег!


Top
 Profile  
 
 
PostPosted: 27 Jun 2017 
консэрваторъ
User avatar
Joined: 11 Aug 2007
Posts: 17297
Lоcаtion: Псков
Age: 45
Name: Сергей
:thanx: изучим... :thanx:

_________________
THRASH 'EM ALL


Top
 Profile E-mail  
 
 
PostPosted: 28 Jun 2017 
Хиппей (support team)
User avatar
Joined: 30 Jul 2007
Posts: 114829
Lоcаtion: Киев (Kyiv, UA)
Age: 46
Name: Andrey
Чего там изучать, группа в 80-х все тусовки СССР с этим винилами "объездила" :pardon:
Очередной культ из ничего. Искусственно созданный дефицит.

_________________


Top
 Profile E-mail  
 
 
PostPosted: 28 Jun 2017 
консэрваторъ
User avatar
Joined: 11 Aug 2007
Posts: 17297
Lоcаtion: Псков
Age: 45
Name: Сергей
Все темы по сабжу слиты воедино, их было пять... пока в этом разделе, ибо задумано поискать демки или демку 1986 года, когда они ещё назывались Genocide Inc., а потом посмотрим...

_________________
THRASH 'EM ALL


Top
 Profile E-mail  
 
 
PostPosted: 29 Jun 2017 
Хиппей (support team)
User avatar
Joined: 30 Jul 2007
Posts: 114829
Lоcаtion: Киев (Kyiv, UA)
Age: 46
Name: Andrey
Стиль добавил чуть и переименовал по привычному шаблону тему.
Радуемся :kro:

_________________


Top
 Profile E-mail  
 
 
PostPosted: 29 Jun 2017 
Хиппей (support team)
User avatar
Joined: 30 Jul 2007
Posts: 114829
Lоcаtion: Киев (Kyiv, UA)
Age: 46
Name: Andrey
Все темы по сабжу слиты воедино, их было пять... пока в этом разделе, ибо задумано поискать демки или демку 1986 года, когда они ещё назывались Genocide Inc., а потом посмотрим...

Серёг, у тебя точно нет технической возможности прикреплять первый пост в теме на все странички и править первое же сообщение в ней?

_________________


Top
 Profile E-mail  
 
 
PostPosted: 29 Jun 2017 
консэрваторъ
User avatar
Joined: 11 Aug 2007
Posts: 17297
Lоcаtion: Псков
Age: 45
Name: Сергей
У меня есть все возможности, но я сделаю всё позже, помере, всё будет, Андрей...

Хотелось бы послушать, что группа играла в далёком 86-ом у истоков так сказать, когда ещё носила имя Genocide Inc.... :oops: На МА числятся две демки, послушать бы хоть что-то...

Genocide Inc. - Demo 1986

Image

1. I.N.C.
2. Grip of Death
3. Razorback


Genocide Inc. - Demo 1986

(No cover)

1. Passageway Through Purgatory 05:20
2. Fists of the Mighty 05:23
3. Legions of the Dead 06:51
4. Infiltration 03:38

Музыкантам написан на FB...
Оттуда:
I.N.C. wrote:
The still relatively new Indestructible Noise Command crew recorded a demo tape in 1986 and immediately started booking bigger shows, appearing on stage with the likes of Exodus, Megadeth and King Diamond.

Здесь речь идёт об одной плёношке, хотя рассказчик вполне может чего-то и не знать или обобщает... :vic:

_________________
THRASH 'EM ALL


Top
 Profile E-mail  
 
Display posts from previous:  Sort by  
Post new topic Reply to topic  [ 79 posts ]  Go to page Previous  1, 2, 3, 4  Next

All times are UTC + 3 hours


Who is online

Users browsing this forum: No registered users and 2 guests


You cannot post new topics in this forum
You cannot reply to topics in this forum
You cannot edit your posts in this forum
You cannot delete your posts in this forum
You cannot post attachments in this forum

Search for:
Яндекс.Метрика
Powered by phpBB © 2000, 2002, 2005, 2007 phpBB Group