\m/ 80's metal \m/

Информационно-аналитический форум "80 см пыли" (In Search We Trust) "У нас никто никуда не спешит"
Me For You - http://me-4u.com
It is currently 23 Apr 2019

All times are UTC + 3 hours

Spoiler
Chat - temporary registration for foreign users (please leave your application here)





Forum rules


Уважаемые пользователи ресурса, друзья, коллеги и гости нашего форума. Данный раздел конференции создан с целью рафинации, и посвящён такому стилевому направлению в музыке, как Thrash Metal во всех его проявлениях и ипостасях, а иногда и переходящему на пограничные стили Speed, Power, Groove, Crossover, MDM и т.п.
Главное правило здесь одно: Одна группа – одна тема! Всё остальное созвучно основным нормам поведения на конференции.
Шаблон оформления тем в этом подфоруме должен быть основан на данных сайта www.metal-archives.com и выглядеть следующим образом:

Группа (Страна) - Стилевые рамки - дискография
Slayer (USA) - Thrash Metal - дискография


В теме допустимо размещение всей информации касающейся данного коллектива: анонсы любых альбомов в любых форматах, запросы любых релизов коллектива (кроме релизов текущего и прошлого годов), обсуждения, обзоры, а в остальном всё как обычно. Уважаем друг друга, не грубим, соблюдаем нормы поведения на конференции, оформляем анонсы и запросы красиво и информативно, что бы модераторы не посчитали их троллингом, и не отправили куда положено, выписав Вам предупреждение или ещё что похуже… Прежде чем что-то запросить или запостить, пользуемся поиском! Пользуемся поиском! ПОЛЬЗУЕМСЯ ПОИСКОМ!!! Так слышно меня?.. :pardon:
Интересного, конструктивного и креативного общения! ;)

Image



Post new topic Reply to topic  [ 108 posts ]  Go to page Previous  1, 2, 3, 4, 5, 6  Next
Author Message
 
PostPosted: 08 Nov 2015 
А может смените мне статус?..
Joined: 03 Jul 2009
Posts: 862
Lоcаtion: Serbia
Name: Laki
Wargasm - Why Play Around ? 1988
Вот интересно, нужен ли кому винильный рип этого альбома?


I'm interested. That would be very nice :thanx:


Top
 Profile E-mail  
 
 
PostPosted: 09 Nov 2015 
Рарник и трушник
User avatar
Joined: 25 Dec 2009
Posts: 8591
Lоcаtion: Москва
Age: 53
Name: Виталий
ОК, поставлю в планы по оцифровке. :umnik:


Top
 Profile  
 
 
PostPosted: 09 Nov 2015 
5-speed satisfactor
User avatar
Joined: 16 Feb 2009
Posts: 3723
Lоcаtion: New York, USA
Age: 41
Name: Leonid
ОК, поставлю в планы по оцифровке. :umnik:


Я б на твоем месте стянул сру трекера и сравнил цыд с винилом. Если цыд звучит адекватно, зачем тратить время?

_________________
Death rules! Metal to all who oppose!


Top
 Profile  
 
 
PostPosted: 09 Nov 2015 
Рарник и трушник
User avatar
Joined: 25 Dec 2009
Posts: 8591
Lоcаtion: Москва
Age: 53
Name: Виталий
metaleonid wrote:
и сравнил цыд с винилом. Если цыд звучит адекватно, зачем тратить время?

Ну да, конечно, но винил звучит по-другому, сам знаешь. Тем более, качество АЦП, когда чифирили цид, и современных АЦП не сравнить. :umnik:


Top
 Profile  
 
 
PostPosted: 09 Nov 2015 
5-speed satisfactor
User avatar
Joined: 16 Feb 2009
Posts: 3723
Lоcаtion: New York, USA
Age: 41
Name: Leonid
metaleonid wrote:
и сравнил цыд с винилом. Если цыд звучит адекватно, зачем тратить время?
качество АЦП, когда чифирили цид, и современных АЦП не сравнить. :umnik:


Почему тогда некоторые цыды того времени звучат значительно лучше винила? А некоторые так же? Ну вот скажем Hallows Eve - Terror Tales, Venom - Black Metal на Price Killers звучат значительно лучше ви илов

_________________
Death rules! Metal to all who oppose!


Top
 Profile  
 
 
PostPosted: 09 Nov 2015 
Рарник и трушник
User avatar
Joined: 25 Dec 2009
Posts: 8591
Lоcаtion: Москва
Age: 53
Name: Виталий
Это единичные случаи, не знаю, почему, наверное другие исходники, или перемастеринг мастер-тейпа. Но частотка у ранних цидов до 20 кГц, а современные цифири (или сделанные после 95-96 г.) - до 22 кГц. И это существенная разница в звуке. А учитывая, что основную массу цидов отчифирили до 95-го, то у всех частотка урезана до 20-ти. Мне это просто в падлу осознавать, вот и хочется винил отчифирить, чтоб звучал получше цида. :umnik:


Top
 Profile  
 
 
PostPosted: 10 Nov 2015 
Рарник и трушник
User avatar
Joined: 25 Dec 2009
Posts: 8591
Lоcаtion: Москва
Age: 53
Name: Виталий
Послушал цид - да, качественно. Не буду чифирить винил. :vic:


Top
 Profile  
 
 
PostPosted: 10 Nov 2015 
5-speed satisfactor
User avatar
Joined: 16 Feb 2009
Posts: 3723
Lоcаtion: New York, USA
Age: 41
Name: Leonid
Послушал цид - да, качественно. Не буду чифирить винил. :vic:


:true:

_________________
Death rules! Metal to all who oppose!


Top
 Profile  
 
 
PostPosted: 11 Nov 2015 
Рарник и трушник
User avatar
Joined: 25 Dec 2009
Posts: 8591
Lоcаtion: Москва
Age: 53
Name: Виталий
metaleonid wrote:
Ну раз на трекере есть, выкладывать не буду....

Скачал рип первопресса - ну скажу, что такого качества саунд я на цидах очень редко встречал!!! :pardon:


Top
 Profile  
 
 
PostPosted: 25 Jan 2017 
Генеральный thrasher
User avatar
Joined: 03 Oct 2008
Posts: 3695
Lоcаtion: Ханты-Мансийский АО
Age: 44
Name: Сергей
Переиздания классики трэша.Может кому-нибудь пригодятся данные рипы...

Image

Year:1988 (2015 Remastered)
Style:Thrash Metal
Country:U.S.A.
Archive:Flac+Cue+Log+Scans
Source:my CD
Size:348Mb
Label:Dark Symphonies

Tracklist:
01. Wasteland 04:00
02. Revenge 07:05
03. Bullets & Blades 03:53
04. Undead 06:29
05. Merritt's Girlfriend 00:48
06. Sudden Death 05:01
07. Wargasm 09:17
08. Le Cou Cou 02:22
09. Humanoid 04:49

"Cue"
REM GENRE "Thrash Metal"
REM DATE 1988
REM DISCID 860A4009
REM COMMENT "ExactAudioCopy v1.1"
PERFORMER "Wargasm"
TITLE "Why Play Around"
FILE "Wargasm - Why Play Around.flac" WAVE
TRACK 01 AUDIO
TITLE "Wasteland"
PERFORMER "Wargasm"
INDEX 01 00:00:00
TRACK 02 AUDIO
TITLE "Revenge"
PERFORMER "Wargasm"
INDEX 00 03:57:65
INDEX 01 03:59:65
TRACK 03 AUDIO
TITLE "Bullets & Blades"
PERFORMER "Wargasm"
INDEX 00 11:03:74
INDEX 01 11:04:74
TRACK 04 AUDIO
TITLE "Undead"
PERFORMER "Wargasm"
INDEX 00 14:54:54
INDEX 01 14:57:54
TRACK 05 AUDIO
TITLE "Merritt's Girlfriend (Instrumental)"
PERFORMER "Wargasm"
INDEX 00 21:25:12
INDEX 01 21:27:12
TRACK 06 AUDIO
TITLE "Sudden Death"
PERFORMER "Wargasm"
INDEX 00 22:10:72
INDEX 01 22:14:72
TRACK 07 AUDIO
TITLE "Wargasm"
PERFORMER "Wargasm"
INDEX 00 27:14:65
INDEX 01 27:15:65
TRACK 08 AUDIO
TITLE "Le Cou Cou (Instrumental)"
PERFORMER "Wargasm"
INDEX 00 36:29:57
INDEX 01 36:32:57
TRACK 09 AUDIO
TITLE "Humanoid"
PERFORMER "Wargasm"
INDEX 00 38:53:39
INDEX 01 38:55:01

"Log"
Exact Audio Copy V1.1 from 23. June 2015

Отчёт EAC об извлечении, выполненном 19. июня 2016, 21:49

Wargasm / Why Play Around

Дисковод: HL-DT-STDVDRAM GTA0N Adapter: 1 ID: 0

Режим чтения : Достоверность
Использование точного потока : Да
Отключение кэша аудио : Да
Использование указателей C2 : Нет

Коррекция смещения при чтении : 102
Способность читать области Lead-in и Lead-out : Нет
Заполнение пропущенных сэмплов тишиной : Да
Удаление блоков с тишиной в начале и конце : Нет
При вычислениях CRC использовались нулевые сэмплы : Да
Интерфейс : Встроенный Win32-интерфейс для Win NT/2000

Выходной формат : Пользовательский кодировщик
Выбранный битрейт : 768 kBit/s
Качество : Высокий
Добавление ID3-тега : Нет
Утилита сжатия : C:\Program Files (x86)\Exact Audio Copy\FLAC\FLAC.EXE
Дополнительные параметры : -6 -V -T "ARTIST=%artist%" -T "TITLE=%title%" -T "ALBUM=%albumtitle%" -T "DATE=%year%" -T "TRACKNUMBER=%tracknr%" -T "GENRE=%genre%" -T "COMMENT=%comment%" -T "BAND=%albuminterpret%" -T "ALBUMARTIST=%albuminterpret%" -T "COMPOSER=%composer%" %haslyrics%--tag-from-file=LYRICS="%lyricsfile%"%haslyrics% -T "DISCNUMBER=%cdnumber%" -T "TOTALDISCS=%totalcds%" -T "TOTALTRACKS=%numtracks%" %hascover%--picture="%coverfile%"%hascover% %source% -o %dest%


TOC извлечённого CD

Трек | Старт | Длительность | Начальный сектор | Конечный сектор
---------------------------------------------------------------------
1 | 0:00.00 | 3:59.65 | 0 | 17989
2 | 3:59.65 | 7:05.09 | 17990 | 49873
3 | 11:04.74 | 3:52.55 | 49874 | 67328
4 | 14:57.54 | 6:29.33 | 67329 | 96536
5 | 21:27.12 | 0:47.60 | 96537 | 100121
6 | 22:14.72 | 5:00.68 | 100122 | 122689
7 | 27:15.65 | 9:16.67 | 122690 | 164456
8 | 36:32.57 | 2:22.19 | 164457 | 175125
9 | 38:55.01 | 4:49.00 | 175126 | 196800


Характеристики диапазона извлечения и сообщения об ошибках

Выбранный диапазон

Имя файла C:\Users\магазин\Music\Wargasm - Why Play Around.wav

Пиковый уровень 100.0 %
Скорость извлечения 3.9 X
Качество диапазона 100.0 %
CRC копии A8D62565
Копирование... OK

Ошибок не произошло


AccurateRip: сводка

Трек 1 отсутствует в базе данных
Трек 2 отсутствует в базе данных
Трек 3 отсутствует в базе данных
Трек 4 отсутствует в базе данных
Трек 5 отсутствует в базе данных
Трек 6 отсутствует в базе данных
Трек 7 отсутствует в базе данных
Трек 8 отсутствует в базе данных
Трек 9 отсутствует в базе данных

Ни одного трека нет в базе AccurateRip

Конец отчёта

---- CUETools DB Plugin V2.1.6

[CTDB TOCID: p31B01dvU7ZFLFXJ.LrsWUV7rzU-] found
Submit result: p31B01dvU7ZFLFXJ.LrsWUV7rzU- has been confirmed
Track | CTDB Status
1 | (2/2) Accurately ripped
2 | (2/2) Accurately ripped
3 | (2/2) Accurately ripped
4 | (2/2) Accurately ripped
5 | (2/2) Accurately ripped
6 | (2/2) Accurately ripped
7 | (2/2) Accurately ripped
8 | (2/2) Accurately ripped
9 | (2/2) Accurately ripped


Why Play Around?

Image

Year:1993 (2016 Remastered)
Style:Thrash Metal
Country:U.S.A.
Archive:Flac+Cue+Log+Scans
Source:my CD
Size:550Mb
Label:Dark Symphonies

Tracklist:
01. The Rudest Awakening 04:55
02. Enemy Mine 04:46
03. Chameleon 06:12
04. I Breathe Fire 04:01
05. Ugly Is To The Bone 06:13
06. Slow Burn 01:50
07. Blood Flood 06:14
08. One Man Army 05:41
09. Spirit In Decay 06:55
10. Dead Man's Smile 02:56
11. Dreadnaught Day 06:29
Bonus Tracks:
12. The Rudest Awakening (Rough Mix) 04:55
13. I Breathe Fire (Rough Mix) 04:02
14. Ugly Is To The Bone (Rough Mix) 06:12
15. Dead Man's Smile (Rough Mix) 02:55
16. Dreadnaught Day (Rough Mix) 05:42

"Cue"
REM GENRE "Thrash Metal"
REM DATE 2016
REM DISCID 0912BB10
REM COMMENT "ExactAudioCopy v1.1"
PERFORMER "Wargasm"
TITLE "Ugly"
FILE "Wargasm - Ugly.flac" WAVE
TRACK 01 AUDIO
TITLE "The Rudest Awakening"
PERFORMER "Wargasm"
INDEX 01 00:00:00
TRACK 02 AUDIO
TITLE "Enemy Mine"
PERFORMER "Wargasm"
INDEX 01 04:54:45
TRACK 03 AUDIO
TITLE "Chameleon"
PERFORMER "Wargasm"
INDEX 01 09:41:05
TRACK 04 AUDIO
TITLE "I Breathe Fire"
PERFORMER "Wargasm"
INDEX 01 15:52:70
TRACK 05 AUDIO
TITLE "Ugly Is to the Bone"
PERFORMER "Wargasm"
INDEX 01 19:53:42
TRACK 06 AUDIO
TITLE "Slow Burn"
PERFORMER "Wargasm"
INDEX 01 26:06:15
TRACK 07 AUDIO
TITLE "Blood Flood"
PERFORMER "Wargasm"
INDEX 01 27:55:63
TRACK 08 AUDIO
TITLE "One Man Army"
PERFORMER "Wargasm"
INDEX 01 34:09:46
TRACK 09 AUDIO
TITLE "Spirit in Decay"
PERFORMER "Wargasm"
INDEX 00 39:50:70
INDEX 01 39:50:71
TRACK 10 AUDIO
TITLE "Dead Man's Smile"
PERFORMER "Wargasm"
INDEX 01 46:45:61
TRACK 11 AUDIO
TITLE "Dreadnaut Day"
PERFORMER "Wargasm"
INDEX 01 49:41:69
TRACK 12 AUDIO
TITLE "The Rudest Awakening (Rough Mix)"
PERFORMER "Wargasm"
INDEX 01 56:10:32
TRACK 13 AUDIO
TITLE "I Breathe Fire (Rough Mix)"
PERFORMER "Wargasm"
INDEX 01 61:05:58
TRACK 14 AUDIO
TITLE "Ugly Is to the Bone (Rough Mix)"
PERFORMER "Wargasm"
INDEX 01 65:07:37
TRACK 15 AUDIO
TITLE "Dead Man's Smile (Rough Mix)"
PERFORMER "Wargasm"
INDEX 01 71:19:10
TRACK 16 AUDIO
TITLE "Dreadnaut Day (Rough Mix)"
PERFORMER "Wargasm"
INDEX 01 74:13:71

"Log"
Exact Audio Copy V1.1 from 23. June 2015

Отчёт EAC об извлечении, выполненном 24. июля 2016, 10:03

Wargasm / Ugly

Дисковод: HL-DT-STDVDRAM GTA0N Adapter: 1 ID: 0

Режим чтения : Достоверность
Использование точного потока : Да
Отключение кэша аудио : Да
Использование указателей C2 : Нет

Коррекция смещения при чтении : 102
Способность читать области Lead-in и Lead-out : Нет
Заполнение пропущенных сэмплов тишиной : Да
Удаление блоков с тишиной в начале и конце : Нет
При вычислениях CRC использовались нулевые сэмплы : Да
Интерфейс : Встроенный Win32-интерфейс для Win NT/2000

Выходной формат : Пользовательский кодировщик
Выбранный битрейт : 768 kBit/s
Качество : Высокий
Добавление ID3-тега : Нет
Утилита сжатия : C:\Program Files (x86)\Exact Audio Copy\FLAC\FLAC.EXE
Дополнительные параметры : -6 -V -T "ARTIST=%artist%" -T "TITLE=%title%" -T "ALBUM=%albumtitle%" -T "DATE=%year%" -T "TRACKNUMBER=%tracknr%" -T "GENRE=%genre%" -T "COMMENT=%comment%" -T "BAND=%albuminterpret%" -T "ALBUMARTIST=%albuminterpret%" -T "COMPOSER=%composer%" %haslyrics%--tag-from-file=LYRICS="%lyricsfile%"%haslyrics% -T "DISCNUMBER=%cdnumber%" -T "TOTALDISCS=%totalcds%" -T "TOTALTRACKS=%numtracks%" %hascover%--picture="%coverfile%"%hascover% %source% -o %dest%


TOC извлечённого CD

Трек | Старт | Длительность | Начальный сектор | Конечный сектор
---------------------------------------------------------------------
1 | 0:00.00 | 4:54.45 | 0 | 22094
2 | 4:54.45 | 4:46.35 | 22095 | 43579
3 | 9:41.05 | 6:11.65 | 43580 | 71469
4 | 15:52.70 | 4:00.47 | 71470 | 89516
5 | 19:53.42 | 6:12.48 | 89517 | 117464
6 | 26:06.15 | 1:49.48 | 117465 | 125687
7 | 27:55.63 | 6:13.58 | 125688 | 153720
8 | 34:09.46 | 5:41.25 | 153721 | 179320
9 | 39:50.71 | 6:54.65 | 179321 | 210435
10 | 46:45.61 | 2:56.08 | 210436 | 223643
11 | 49:41.69 | 6:28.38 | 223644 | 252781
12 | 56:10.32 | 4:55.26 | 252782 | 274932
13 | 61:05.58 | 4:01.54 | 274933 | 293061
14 | 65:07.37 | 6:11.48 | 293062 | 320934
15 | 71:19.10 | 2:54.61 | 320935 | 334045
16 | 74:13.71 | 5:41.43 | 334046 | 359663


Характеристики диапазона извлечения и сообщения об ошибках

Выбранный диапазон

Имя файла C:\Users\магазин\Music\Wargasm - Ugly.wav

Пиковый уровень 100.0 %
Скорость извлечения 4.4 X
Качество диапазона 100.0 %
CRC копии 690D5B9E
Копирование... OK

Ошибок не произошло


AccurateRip: сводка

Трек 1 отсутствует в базе данных
Трек 2 отсутствует в базе данных
Трек 3 отсутствует в базе данных
Трек 4 отсутствует в базе данных
Трек 5 отсутствует в базе данных
Трек 6 отсутствует в базе данных
Трек 7 отсутствует в базе данных
Трек 8 отсутствует в базе данных
Трек 9 отсутствует в базе данных
Трек 10 отсутствует в базе данных
Трек 11 отсутствует в базе данных
Трек 12 отсутствует в базе данных
Трек 13 отсутствует в базе данных
Трек 14 отсутствует в базе данных
Трек 15 отсутствует в базе данных
Трек 16 отсутствует в базе данных

Ни одного трека нет в базе AccurateRip

Конец отчёта

---- CUETools DB Plugin V2.1.6

[CTDB TOCID: mB4ilSyRkWKOZqdrg_nPVJjTsUw-] disk not present in database
Submit result: mB4ilSyRkWKOZqdrg_nPVJjTsUw- has been uploaded


Ugly


Top
 Profile  
 
 
PostPosted: 25 Jan 2017 
Рарник и трушник
User avatar
Joined: 25 Dec 2009
Posts: 8591
Lоcаtion: Москва
Age: 53
Name: Виталий
Спасибо Сергей!!! :lob:
Для меня первый альбом Варгазма - вообще один из самых любимых в треше. Интересно будет ремастер заслушать. :lob: :thanx:


Top
 Profile  
 
 
PostPosted: 25 Jan 2017 
Хиппей (support team)
User avatar
Joined: 30 Jul 2007
Posts: 111788
Lоcаtion: Киев (Kyiv, UA)
Age: 45
Name: Andrey
Красота :thanx:

mirror: iFolder l Narod l M-Cloud

_________________


Top
 Profile E-mail  
 
 
PostPosted: 25 Jan 2017 
А может смените мне статус?..
User avatar
Joined: 02 Feb 2009
Posts: 999
Lоcаtion: из Тулы
Age: 44
Name: Максим
Wargasm - Why Play Around? купил такой на виниле
звук понравился, даже рипнул, кого интересует, могу кинуть.... в того

_________________
КМА


Top
 Profile  
 
 
PostPosted: 25 Jan 2017 
Рарник и трушник
User avatar
Joined: 25 Dec 2009
Posts: 8591
Lоcаtion: Москва
Age: 53
Name: Виталий
overkiller wrote:
Wargasm - Why Play Around? купил такой на виниле
звук понравился, даже рипнул, кого интересует, могу кинуть.... в того

Ну Максим, при всём уважении, мне точно не нужен, поскольку у меня оригинальный винил 88-го есть, а новоделы я не жалую. Тем более винил наверняка с цыда сделан, т.е. высокие частотки тю-тю.
Но мож кому ще и интересно будет. :thanx:


Top
 Profile  
 
 
PostPosted: 25 Jan 2017 
А может смените мне статус?..
User avatar
Joined: 02 Feb 2009
Posts: 999
Lоcаtion: из Тулы
Age: 44
Name: Максим
overkiller wrote:
Wargasm - Why Play Around? купил такой на виниле
звук понравился, даже рипнул, кого интересует, могу кинуть.... в того

Ну Максим, при всём уважении, мне точно не нужен, поскольку у меня оригинальный винил 88-го есть, а новоделы я не жалую. Тем более винил наверняка с цыда сделан, т.е. высокие частотки тю-тю.
Но мож кому ще и интересно будет. :thanx:

ну кстати с высокими все нормально, на мой взгляд...
я не очень жалую глухие фонограмы, многие рипы звучат глуховато, хоть и на очень крутых аппаратах сделанные
мне нравятся мои рипы, которые звонкие, но без сибилянтов

_________________
КМА


Top
 Profile  
 
 
PostPosted: 25 Jan 2017 
Прокъмитолист
User avatar
Joined: 12 Aug 2007
Posts: 6545
Lоcаtion: Санктъ-Петербуркъ
Age: 51
Name: Олекъ
и я заберу за компанию. Серёг, спасибо :thanx:

_________________
прокъметол - это музыко, от которово есть прок (ы)


Top
 Profile  
 
 
PostPosted: 25 Jan 2017 
Рарник и трушник
User avatar
Joined: 25 Dec 2009
Posts: 8591
Lоcаtion: Москва
Age: 53
Name: Виталий
overkiller wrote:
ну кстати с высокими все нормально, на мой взгляд...
я не очень жалую глухие фонограмы, многие рипы звучат глуховато, хоть и на очень крутых аппаратах сделанные

Ну ремастнули же цыд. Я же про то, что там нету частоток выше 22 кГц, которые есть на оригинальном виниле. А просто высокочастотные резонансы.
overkiller wrote:
я не очень жалую глухие фонограмы, многие рипы звучат глуховато, хоть и на очень крутых аппаратах сделанные

Ну кому что, и смотря на чём слушать. Я в "глухих" рипах прекрасно слышу и глубину и достаток высоких и прозрачность. А на звонких - сплошной звон только. :pardon:


Top
 Profile  
 
 
PostPosted: 25 Jan 2017 
А может смените мне статус?..
User avatar
Joined: 02 Feb 2009
Posts: 999
Lоcаtion: из Тулы
Age: 44
Name: Максим
overkiller wrote:
ну кстати с высокими все нормально, на мой взгляд...
я не очень жалую глухие фонограмы, многие рипы звучат глуховато, хоть и на очень крутых аппаратах сделанные

Ну ремастнули же цыд. Я же про то, что там нету частоток выше 22 кГц, которые есть на оригинальном виниле. А просто высокочастотные резонансы.
overkiller wrote:
я не очень жалую глухие фонограмы, многие рипы звучат глуховато, хоть и на очень крутых аппаратах сделанные

Ну кому что, и смотря на чём слушать. Я в "глухих" рипах прекрасно слышу и глубину и достаток высоких и прозрачность. А на звонких - сплошной звон только. :pardon:

а вот это не сравнивал?, мне просто интересно
если не сложно сравни

_________________
КМА


Top
 Profile  
 
 
PostPosted: 25 Jan 2017 
Рарник и трушник
User avatar
Joined: 25 Dec 2009
Posts: 8591
Lоcаtion: Москва
Age: 53
Name: Виталий
Чёта доступ блокирован. Вечерком дома посмотрю. :vic:


Top
 Profile  
 
 
PostPosted: 25 Jan 2017 
консэрваторъ
Joined: 11 Aug 2007
Posts: 16827
Lоcаtion: Псков
Age: 45
Name: Сергей
Спасибо большое, забрал!.. :thanx:

_________________
THRASH 'EM ALL


Top
 Profile E-mail  
 
Display posts from previous:  Sort by  
Post new topic Reply to topic  [ 108 posts ]  Go to page Previous  1, 2, 3, 4, 5, 6  Next

All times are UTC + 3 hours


Who is online

Users browsing this forum: No registered users and 2 guests


You cannot post new topics in this forum
You cannot reply to topics in this forum
You cannot edit your posts in this forum
You cannot delete your posts in this forum
You cannot post attachments in this forum

Search for:
Яндекс.Метрика
Powered by phpBB © 2000, 2002, 2005, 2007 phpBB Group