\m/ 80's metal \m/

Информационно-аналитический форум "80 см пыли" (In Search We Trust) "У нас никто никуда не спешит"
Me For You - http://me-4u.com
It is currently 19 Dec 2018

All times are UTC + 3 hours

Spoiler
Chat - temporary registration for foreign users (please leave your application here)





Forum rules


Уважаемые пользователи ресурса, друзья, коллеги и гости нашего форума. Данный раздел конференции создан с целью рафинации, и посвящён такому стилевому направлению в музыке, как Thrash Metal во всех его проявлениях и ипостасях, а иногда и переходящему на пограничные стили Speed, Power, Groove, Crossover, MDM и т.п.
Главное правило здесь одно: Одна группа – одна тема! Всё остальное созвучно основным нормам поведения на конференции.
Шаблон оформления тем в этом подфоруме должен быть основан на данных сайта www.metal-archives.com и выглядеть следующим образом:

Группа (Страна) - Стилевые рамки - дискография
Slayer (USA) - Thrash Metal - дискография


В теме допустимо размещение всей информации касающейся данного коллектива: анонсы любых альбомов в любых форматах, запросы любых релизов коллектива (кроме релизов текущего и прошлого годов), обсуждения, обзоры, а в остальном всё как обычно. Уважаем друг друга, не грубим, соблюдаем нормы поведения на конференции, оформляем анонсы и запросы красиво и информативно, что бы модераторы не посчитали их троллингом, и не отправили куда положено, выписав Вам предупреждение или ещё что похуже… Прежде чем что-то запросить или запостить, пользуемся поиском! Пользуемся поиском! ПОЛЬЗУЕМСЯ ПОИСКОМ!!! Так слышно меня?.. :pardon:
Интересного, конструктивного и креативного общения! ;)



Post new topic Reply to topic  [ 383 posts ]  Go to page Previous  1, 2, 3, 4, 5, 6 ... 20  Next
Author Message
 
PostPosted: 05 Dec 2009 
5-speed satisfactor
User avatar
Joined: 16 Feb 2009
Posts: 3640
Lоcаtion: New York, USA
Age: 40
Name: Leonid
    Image

    Image

Все внутри:

log
Exact Audio Copy V0.99 prebeta 5 from 4. May 2009

EAC extraction logfile from 4. December 2009, 19:04

Annihilator / Stonewall

Used drive : PLEXTOR DVDR PX-760A Adapter: 1 ID: 0

Read mode : Secure
Utilize accurate stream : Yes
Defeat audio cache : Yes
Make use of C2 pointers : Yes

Read offset correction : 30
Overread into Lead-In and Lead-Out : Yes
Fill up missing offset samples with silence : Yes
Delete leading and trailing silent blocks : No
Null samples used in CRC calculations : Yes
Used interface : Installed external ASPI interface

Used output format : User Defined Encoder
Selected bitrate : 768 kBit/s
Quality : High
Add ID3 tag : Yes
Command line compressor : C:\Program Files\FLAC\flac.exe
Additional command line options : -%h8%h%l6%l -V -T "ARTIST=%a" -T "TITLE=%t" -T "ALBUM=%g" -T "DATE=%y" -T "TRACKNUMBER=%n" -T "GENRE=%m" -T "COMMENT=%e" %s -o %d


TOC of the extracted CD

Track | Start | Length | Start sector | End sector
---------------------------------------------------------
1 | 0:00.00 | 4:53.10 | 0 | 21984
2 | 4:53.10 | 4:59.63 | 21985 | 44472
3 | 9:52.73 | 6:36.37 | 44473 | 74209


Range status and errors

Selected range

Filename N:\ToCD\Annihilator\Annihilator - Stonewall.wav

Peak level 94.3 %
Range quality 100.0 %
Copy CRC 06C25959
Copy OK

No errors occurred

End of status report


cue
REM GENRE "Thrash Metal"
REM DATE 1991
REM DISCID 2403DD03
REM COMMENT "ExactAudioCopy v0.99pb5"
PERFORMER "Annihilator"
TITLE "Stonewall"
FILE "Annihilator - Stonewall.flac" WAVE
TRACK 01 AUDIO
TITLE "Stonewall"
PERFORMER "Annihilator"
INDEX 01 00:00:00
TRACK 02 AUDIO
TITLE "W.T.Y.D."
PERFORMER "Annihilator"
INDEX 00 04:49:23
INDEX 01 04:53:10
TRACK 03 AUDIO
TITLE "Word Salad"
PERFORMER "Annihilator"
INDEX 00 09:51:20
INDEX 01 09:52:73


http://www.megaupload.com/?d=SJ89FUGJ
http://www.multiupload.com/D33CKL52RP
http://narod.ru/disk/16800054000/Annihi ... D.rar.html

_________________
Death rules! Metal to all who oppose!


Top
 Profile  
 
 
PostPosted: 05 Dec 2009 
А может смените мне статус?..
User avatar
Joined: 17 Jan 2008
Posts: 872
Lоcаtion: Пенза
Age: 41
Name: Денис
:true: спасибо!


Top
 Profile  
 
 
PostPosted: 05 Dec 2009 
Хиппей (support team)
User avatar
Joined: 30 Jul 2007
Posts: 109003
Lоcаtion: Киев (Kyiv, UA)
Age: 45
Name: Andrey
metaleonid wrote:
Все внутри:

Плин... Лён, а тебе сложно в дальнейшем это _всё_ нормально оформлять в посте? :fingal: Или просто лень? :vic:

_________________


Top
 Profile E-mail  
 
 
PostPosted: 05 Dec 2009 
мелосмертхстер
User avatar
Joined: 11 Jul 2008
Posts: 1058
Lоcаtion: (Әлмәт/Самара)
Age: 42
Name: Rus†Ⓐm
:thanx:

_________________
Everytime I Die

Image


Top
 Profile E-mail  
 
 
PostPosted: 05 Dec 2009 
5-speed satisfactor
User avatar
Joined: 16 Feb 2009
Posts: 3640
Lоcаtion: New York, USA
Age: 40
Name: Leonid
Scatterbrain wrote:
metaleonid wrote:
Все внутри:

Плин... Лён, а тебе сложно в дальнейшем это _всё_ нормально оформлять в посте? :fingal: Или просто лень? :vic:


A как вы сюда в пост фотки заливаете?

_________________
Death rules! Metal to all who oppose!


Top
 Profile  
 
 
PostPosted: 05 Dec 2009 
Хиппей (support team)
User avatar
Joined: 30 Jul 2007
Posts: 109003
Lоcаtion: Киев (Kyiv, UA)
Age: 45
Name: Andrey
metaleonid wrote:
в пост фотки заливаете?

viewtopic.php?f=6&t=49 :scratch:

_________________


Top
 Profile E-mail  
 
 
PostPosted: 05 Dec 2009 
Прокъмитолист
User avatar
Joined: 12 Aug 2007
Posts: 6515
Lоcаtion: Санктъ-Петербуркъ
Age: 51
Name: Олекъ
:thanx:

_________________
прокъметол - это музыко, от которово есть прок (ы)


Top
 Profile  
 
 
PostPosted: 06 Dec 2009 
Metal Collector
User avatar
Joined: 16 Nov 2008
Posts: 1230
Lоcаtion: Химки
Age: 35
Name: Андрей
Пасиба, Лёнь! Ранний Аннигилятор очень полюбляю!


Top
 Profile E-mail  
 
 
PostPosted: 06 Dec 2009 
Power Metal Maniac
User avatar
Joined: 09 Aug 2008
Posts: 6435
Lоcаtion: Москва
Age: 40
Name: Егор
спасибо!

_________________
Long Live Metal!


Top
 Profile  
 
 
PostPosted: 11 Jan 2010 
А может смените мне статус?..
User avatar
Joined: 02 Feb 2009
Posts: 999
Lоcаtion: из Тулы
Age: 44
Name: Максим
ссылка наверное мертва -- пишет что файл недоступен
перезалейте плиз

_________________
КМА


Top
 Profile  
 
 
PostPosted: 11 Jan 2010 
Хиппей (support team)
User avatar
Joined: 30 Jul 2007
Posts: 109003
Lоcаtion: Киев (Kyiv, UA)
Age: 45
Name: Andrey
Ссылка живая. Обновляй страничку на Меге. Шалит она иногда.

_________________


Top
 Profile E-mail  
 
 
PostPosted: 11 Jan 2010 
Хиппей (support team)
User avatar
Joined: 30 Jul 2007
Posts: 109003
Lоcаtion: Киев (Kyiv, UA)
Age: 45
Name: Andrey
В первый пост добавлены зеркальца...

_________________


Top
 Profile E-mail  
 
 
PostPosted: 11 Jan 2010 
.
User avatar
Joined: 25 Aug 2007
Posts: 568
Lоcаtion: Москва
Age: 106
Name: Kostolom
У меня вопрос, а не вошли ли эти треки на концертный альбом In Command?....


Top
 Profile  
 
 
PostPosted: 18 Mar 2010 
ыыыы
User avatar
Joined: 17 May 2009
Posts: 952
Lоcаtion: Пушкино, МО
Age: 40
Name: Дмитрий
Image
Image
Image

_________________
Витасу до Даймонда как Алсу до Руссоса | При переразмещении - спрашивать разрешение!!


Top
 Profile  
 
 
PostPosted: 18 Mar 2010 
Thrasher
User avatar
Joined: 07 Oct 2007
Posts: 2756
Lоcаtion: Russia, Moscow
Age: 34
Name: Drunk & Evil
Спасибо!

_________________
ВОДКА, БАБЫ И БЛЮЗ / 40° till death... :bodun:
One time we saw some hookers, but when we got closer, we realised it was Mötley Crüe. ©


Top
 Profile  
 
 
PostPosted: 20 Mar 2010 
ыыыы
User avatar
Joined: 17 May 2009
Posts: 952
Lоcаtion: Пушкино, МО
Age: 40
Name: Дмитрий
А вот и сам японский релиз
http://www.megaupload.com/?d=PP06DNYS
Для справки:
данный релиз имеет номер матрицы EB065AAPCY-8044 и напечатан на заводе Denon

_________________
Витасу до Даймонда как Алсу до Руссоса | При переразмещении - спрашивать разрешение!!


Last edited by iezuit on 20 Mar 2010, edited 1 time in total.

Top
 Profile  
 
 
PostPosted: 20 Mar 2010 
HAMMER
User avatar
Joined: 16 May 2009
Posts: 5459
Lоcаtion: Тверь
Age: 46
Name: Александр
iezuit wrote:
А вот и сам японский релиз


Спасибо :true:


Top
 Profile E-mail  
 
 
PostPosted: 04 Apr 2010 
ыыыы
User avatar
Joined: 17 May 2009
Posts: 952
Lоcаtion: Пушкино, МО
Age: 40
Name: Дмитрий
Image


Жанр: Thrash Metal
Происхождение исполнителя: Канада
Год издания: 1989
Год издания данного носителя: 1989
Страна-производитель носителя: Япония
Аудио кодек: FLAC
Тип рипа: image+.cue
Битрейт аудио: lossless
Продолжительность: 37:50
Рип: Собственный
Лейбл: ROADRUNNER/APOLLON
Каталоговый номер: C255-8001
Матрица: C255-8001-A1F 11 (JVC)

Треклист:
1. Crystal Ann 01:41
2. Alison Hell 05:01
3. W.T.Y.D. (Welcome to Your Death) 03:56
4. Wicked Mystic 03:38
5. Burns Like a Buzzsaw Blade 03:34
6. Word Salad 05:49
7. Schizos (Are Never Alone) (Parts 1 & 2) 04:32
8. Ligeia 04:47
9. Human Insecticide 04:50

"Куй"
REM GENRE "Thrash Metal"
REM DATE 1989
REM DISCID 6708DE09
REM COMMENT "ExactAudioCopy v0.99pb5"
PERFORMER "Annihilator"
TITLE "Alice in Hell [C255-8001]"
FILE "Annihilator - Alice in Hell [C255-8001].flac" WAVE
TRACK 01 AUDIO
TITLE "Crystal Ann"
PERFORMER "Annihilator"
INDEX 00 00:00:00
INDEX 01 00:00:37
TRACK 02 AUDIO
TITLE "Alison Hell"
PERFORMER "Annihilator"
INDEX 01 01:41:70
TRACK 03 AUDIO
TITLE "W. T. Y. D."
PERFORMER "Annihilator"
INDEX 00 06:42:41
INDEX 01 06:42:50
TRACK 04 AUDIO
TITLE "Wicked Mystic"
PERFORMER "Annihilator"
INDEX 00 10:36:48
INDEX 01 10:38:65
TRACK 05 AUDIO
TITLE "Burns Like a Buzzsaw Blade"
PERFORMER "Annihilator"
INDEX 00 14:15:33
INDEX 01 14:16:72
TRACK 06 AUDIO
TITLE "Word Salad"
PERFORMER "Annihilator"
INDEX 00 17:48:67
INDEX 01 17:50:40
TRACK 07 AUDIO
TITLE "Schizos (Are never alone) Parts I & II"
PERFORMER "Annihilator"
INDEX 00 23:38:63
INDEX 01 23:40:00
TRACK 08 AUDIO
TITLE "Ligeia"
PERFORMER "Annihilator"
INDEX 00 28:10:50
INDEX 01 28:12:30
TRACK 09 AUDIO
TITLE "Human Insecticide"
PERFORMER "Annihilator"
INDEX 00 32:59:04
INDEX 01 32:59:62


"Лог"
Exact Audio Copy V0.99 prebeta 5 from 4. May 2009

EAC extraction logfile from 4. April 2010, 18:37

Annihilator / Alice in Hell [C255-8001]

Used drive : Optiarc DVD RW AD-7200A Adapter: 0 ID: 0

Read mode : Secure
Utilize accurate stream : Yes
Defeat audio cache : Yes
Make use of C2 pointers : No

Read offset correction : 48
Overread into Lead-In and Lead-Out : No
Fill up missing offset samples with silence : Yes
Delete leading and trailing silent blocks : No
Null samples used in CRC calculations : Yes
Used interface : Native Win32 interface for Win NT & 2000

Used output format : User Defined Encoder
Selected bitrate : 128 kBit/s
Quality : High
Add ID3 tag : No
Command line compressor : C:\Program Files\Exact Audio Copy\Flac\flac.exe
Additional command line options : -8 -V -T "artist=%a" -T "title=%t" -T "album=%g" -T "date=%y" -T "tracknumber=%n" -T "genre=%m" -T "comment=EAC 0.9beta4 / FLAC 1.1.0 q6" %s


TOC of the extracted CD

Track | Start | Length | Start sector | End sector
---------------------------------------------------------
1 | 0:00.37 | 1:41.33 | 37 | 7644
2 | 1:41.70 | 5:00.55 | 7645 | 30199
3 | 6:42.50 | 3:56.15 | 30200 | 47914
4 | 10:38.65 | 3:38.07 | 47915 | 64271
5 | 14:16.72 | 3:33.43 | 64272 | 80289
6 | 17:50.40 | 5:49.35 | 80290 | 106499
7 | 23:40.00 | 4:32.30 | 106500 | 126929
8 | 28:12.30 | 4:47.32 | 126930 | 148486
9 | 32:59.62 | 4:50.33 | 148487 | 170269


Range status and errors

Selected range

Filename Y:\Музыка\Annihilator\1989 Alice in Hell\Annihilator - Alice in Hell [C255-8001].wav

Peak level 97.2 %
Range quality 100.0 %
Copy CRC D3EDADEC
Copy OK

No errors occurred

End of status report


Состав:
Jeff Waters: All lead, rhythm, classical and bass guitars, backing vocals
Ray Hartmann: Drums
Randy Rampage: Lead and backing vocals

Народ

_________________
Витасу до Даймонда как Алсу до Руссоса | При переразмещении - спрашивать разрешение!!


Last edited by iezuit on 02 Jul 2010, edited 1 time in total.

Top
 Profile  
 
 
PostPosted: 04 Apr 2010 
ыыыы
User avatar
Joined: 17 May 2009
Posts: 952
Lоcаtion: Пушкино, МО
Age: 40
Name: Дмитрий
Начинаю потихоньку выкладывать ранний ФЕМС, до 90-года. :meloman:

_________________
Витасу до Даймонда как Алсу до Руссоса | При переразмещении - спрашивать разрешение!!


Top
 Profile  
 
 
PostPosted: 04 Apr 2010 
metallpaparazzy
User avatar
Joined: 20 Dec 2009
Posts: 674
Lоcаtion: Днепропетровск
Age: 43
Name: Геннадий
а ты только япошек береш в коллекшин? :shok: шо ни релиз -- япония! :starz:


Top
 Profile E-mail  
 
Display posts from previous:  Sort by  
Post new topic Reply to topic  [ 383 posts ]  Go to page Previous  1, 2, 3, 4, 5, 6 ... 20  Next

All times are UTC + 3 hours


Who is online

Users browsing this forum: No registered users and 3 guests


You cannot post new topics in this forum
You cannot reply to topics in this forum
You cannot edit your posts in this forum
You cannot delete your posts in this forum
You cannot post attachments in this forum

Search for:
Яндекс.Метрика
Powered by phpBB © 2000, 2002, 2005, 2007 phpBB Group