\m/ 80's metal \m/

Информационно-аналитический форум "80 см пыли" (In Search We Trust) "У нас никто никуда не спешит"
Me For You - http://me-4u.com
It is currently 16 Dec 2018

All times are UTC + 3 hours

Spoiler
Chat - temporary registration for foreign users (please leave your application here)





Forum rules


Уважаемые пользователи ресурса, друзья, коллеги и гости нашего форума. Данный раздел конференции создан с целью рафинации, и посвящён такому стилевому направлению в музыке, как Thrash Metal во всех его проявлениях и ипостасях, а иногда и переходящему на пограничные стили Speed, Power, Groove, Crossover, MDM и т.п.
Главное правило здесь одно: Одна группа – одна тема! Всё остальное созвучно основным нормам поведения на конференции.
Шаблон оформления тем в этом подфоруме должен быть основан на данных сайта www.metal-archives.com и выглядеть следующим образом:

Группа (Страна) - Стилевые рамки - дискография
Slayer (USA) - Thrash Metal - дискография


В теме допустимо размещение всей информации касающейся данного коллектива: анонсы любых альбомов в любых форматах, запросы любых релизов коллектива (кроме релизов текущего и прошлого годов), обсуждения, обзоры, а в остальном всё как обычно. Уважаем друг друга, не грубим, соблюдаем нормы поведения на конференции, оформляем анонсы и запросы красиво и информативно, что бы модераторы не посчитали их троллингом, и не отправили куда положено, выписав Вам предупреждение или ещё что похуже… Прежде чем что-то запросить или запостить, пользуемся поиском! Пользуемся поиском! ПОЛЬЗУЕМСЯ ПОИСКОМ!!! Так слышно меня?.. :pardon:
Интересного, конструктивного и креативного общения! ;)



Post new topic Reply to topic  [ 383 posts ]  Go to page Previous  1 ... 4, 5, 6, 7, 8, 9, 10 ... 20  Next
Author Message
 
PostPosted: 24 Jun 2010 
Хиппей (support team)
User avatar
Joined: 30 Jul 2007
Posts: 108945
Lоcаtion: Киев (Kyiv, UA)
Age: 45
Name: Andrey
Дык, в составе ж 5 членов, оттого и ног 10 :umnik:

_________________


Top
 Profile E-mail  
 
 
PostPosted: 24 Jun 2010 
ыыыы
User avatar
Joined: 17 May 2009
Posts: 952
Lоcаtion: Пушкино, МО
Age: 40
Name: Дмитрий
в архивах шла речь о 4-х членах )))

_________________
Витасу до Даймонда как Алсу до Руссоса | При переразмещении - спрашивать разрешение!!


Top
 Profile  
 
 
PostPosted: 24 Jun 2010 
Хиппей (support team)
User avatar
Joined: 30 Jul 2007
Posts: 108945
Lоcаtion: Киев (Kyiv, UA)
Age: 45
Name: Andrey
Архивы гонють :fingal:

_________________


Top
 Profile E-mail  
 
 
PostPosted: 24 Jun 2010 
Power Metal Maniac
User avatar
Joined: 09 Aug 2008
Posts: 6434
Lоcаtion: Москва
Age: 40
Name: Егор
В Аннигиляторе партии баса (да и партии гитары) всегда прописывал сам Джефф, а составы группы, указанные в буклетах и фотки - как правило для туров.

_________________
Long Live Metal!


Top
 Profile  
 
 
PostPosted: 24 Jun 2010 
Motörheadache
User avatar
Joined: 04 Feb 2010
Posts: 1294
Lоcаtion: Впереди- горы,позади-степи
Age: 45
Name: Александр
EG Power wrote:
В Аннигиляторе партии баса (да и партии гитары) всегда прописывал сам Джефф, а составы группы, указанные в буклетах и фотки - как правило для туров.

Вот пришёл Егор и всех помирил,и всё устаканил.....)))

_________________
Eine Nation, Ein Land, Eine Schnaps!

Наш священный долг:защищать Родину,и соблюдать правила личной гигиены....!


Top
 Profile E-mail  
 
 
PostPosted: 24 Jun 2010 
Хиппей (support team)
User avatar
Joined: 30 Jul 2007
Posts: 108945
Lоcаtion: Киев (Kyiv, UA)
Age: 45
Name: Andrey
Егор не сказал, почему на обложке 10 кедов :dash:
Фотка с турне?

_________________


Top
 Profile E-mail  
 
 
PostPosted: 24 Jun 2010 
Motörheadache
User avatar
Joined: 04 Feb 2010
Posts: 1294
Lоcаtion: Впереди- горы,позади-степи
Age: 45
Name: Александр
Scatterbrain wrote:
Егор не сказал, почему на обложке 10 кедов :dash:
Фотка с турне?

Фотка из "личных архивов музыкантофф".....типа : " Вотерс,драммер и какой-то чувак ,зашедшый на репетицыю.." :crazy:

_________________
Eine Nation, Ein Land, Eine Schnaps!

Наш священный долг:защищать Родину,и соблюдать правила личной гигиены....!


Top
 Profile E-mail  
 
 
PostPosted: 24 Jun 2010 
Хиппей (support team)
User avatar
Joined: 30 Jul 2007
Posts: 108945
Lоcаtion: Киев (Kyiv, UA)
Age: 45
Name: Andrey
А пятый хто? :fingal: Вокалиста то узнал - по кудряшкам.

_________________


Top
 Profile E-mail  
 
 
PostPosted: 25 Jun 2010 
Power Metal Maniac
User avatar
Joined: 09 Aug 2008
Posts: 6434
Lоcаtion: Москва
Age: 40
Name: Егор
фотка скорее всего тут и является промо-фоткой )

_________________
Long Live Metal!


Top
 Profile  
 
 
PostPosted: 25 Jun 2010 
спасибо уже слушаю


Top
  
 
 
PostPosted: 26 Jun 2010 
Пионэръ
Joined: 08 Mar 2010
Posts: 36
Lоcаtion: Россия
Age: 39
Name: Иван
Спасибо


Top
 Profile E-mail  
 
 
PostPosted: 29 Jun 2010 
ыыыы
User avatar
Joined: 17 May 2009
Posts: 952
Lоcаtion: Пушкино, МО
Age: 40
Name: Дмитрий
Image


Жанр: Thrash Metal
Происхождение исполнителя: Канада
Год издания: 1994
Год издания данного носителя: 1994
Страна-производитель носителя: Япония
Аудио кодек: FLAC
Тип рипа: image+.cue
Битрейт аудио: lossless
Продолжительность: 55:05
Рип: Собственный
Лейбл: ROADRUNNER/F.E.M.S
Каталоговый номер: APCY-8214
Матрица: APCY-8214- 1F 11 V IPFI L232(JVC)

Треклист:
1. The Box 05:31
2. King of the Kill 03:13
3. Annihilator 04:28
4. Bad Child 03:41
5. Only Be Lonely 05:34
6. 21 04:24
7. Bliss 00:52
8. Second to None 05:15
9. Hell Is a War 05:19
10. Speed 04:37
11. In the Blood 04:19
12. Catch the Wind 03:48
13. Fiasco (The Slate) 00:09
14. Fiasco 03:56

"Куй"
REM GENRE Metal
REM DATE 1994
REM DISCID C00CE90E
REM COMMENT "ExactAudioCopy v0.99pb5"
PERFORMER "Annihilator"
TITLE "King Of The Kill [APCY-8214]"
FILE "Annihilator - King Of The Kill [APCY-8214].flac" WAVE
TRACK 01 AUDIO
TITLE "The Box"
PERFORMER "Annihilator"
INDEX 00 00:00:00
INDEX 01 00:00:37
TRACK 02 AUDIO
TITLE "King Of The Kill"
PERFORMER "Annihilator"
INDEX 01 05:31:05
TRACK 03 AUDIO
TITLE "Annihilator"
PERFORMER "Annihilator"
INDEX 01 08:43:52
TRACK 04 AUDIO
TITLE "Bad Child"
PERFORMER "Annihilator"
INDEX 01 13:11:25
TRACK 05 AUDIO
TITLE "Only Be Lonely"
PERFORMER "Annihilator"
INDEX 00 16:51:13
INDEX 01 16:52:40
TRACK 06 AUDIO
TITLE "21"
PERFORMER "Annihilator"
INDEX 00 22:25:63
INDEX 01 22:26:42
TRACK 07 AUDIO
TITLE "Bliss"
PERFORMER "Annihilator"
INDEX 01 26:50:30
TRACK 08 AUDIO
TITLE "Second To None"
PERFORMER "Annihilator"
INDEX 01 27:42:02
TRACK 09 AUDIO
TITLE "Hell Is A War"
PERFORMER "Annihilator"
INDEX 01 32:57:15
TRACK 10 AUDIO
TITLE "Speed"
PERFORMER "Annihilator"
INDEX 01 38:16:10
TRACK 11 AUDIO
TITLE "In The Blood"
PERFORMER "Annihilator"
INDEX 01 42:52:50
TRACK 12 AUDIO
TITLE "Catch The Wind"
PERFORMER "Annihilator"
INDEX 01 47:11:30
TRACK 13 AUDIO
TITLE "Fiasco (The Slate)"
PERFORMER "Annihilator"
INDEX 01 50:59:65
TRACK 14 AUDIO
TITLE "Fiasco"
PERFORMER "Annihilator"
INDEX 01 51:08:55


"Лог"
Exact Audio Copy V0.99 prebeta 5 from 4. May 2009

Отчёт EAC об извлечении, выполненном 29. июня 2010, 10:27

Annihilator / King Of The Kill [APCY-8214]

Дисковод: Optiarc DVD RW AD-7200A Adapter: 1 ID: 0

Режим чтения : Достоверность
Использование точного потока : Да
Отключение кэша аудио : Да
Использование указателей C2 : Нет

Коррекция смещения при чтении : 48
Способность читать области Lead-in и Lead-out : Нет
Заполнение пропущенных сэмплов тишиной : Да
Удаление блоков с тишиной в начале и конце : Нет
При вычислениях CRC использовались нулевые сэмплы : Да
Интерфейс : Встроенный Win32-интерфейс для Win NT/2000
Обработка зазоров : Добавлено к предыдущему треку

Выходной формат : Пользовательский кодировщик
Выбранный битрейт : 128 kBit/s
Качество : Высокий
Exact Audio Copy V0.99 prebeta 5 from 4. May 2009

Отчёт EAC об извлечении, выполненном 29. июня 2010, 10:43

Annihilator / King Of The Kill [APCY-8214]

Дисковод: Optiarc DVD RW AD-7200A Adapter: 1 ID: 0

Режим чтения : Достоверность
Использование точного потока : Да
Отключение кэша аудио : Да
Использование указателей C2 : Нет

Коррекция смещения при чтении : 48
Способность читать области Lead-in и Lead-out : Нет
Заполнение пропущенных сэмплов тишиной : Да
Удаление блоков с тишиной в начале и конце : Нет
При вычислениях CRC использовались нулевые сэмплы : Да
Интерфейс : Встроенный Win32-интерфейс для Win NT/2000

Выходной формат : Пользовательский кодировщик
Выбранный битрейт : 128 kBit/s
Качество : Высокий
Добавление ID3-тэга : Нет
Утилита сжатия : C:\Program Files\Exact Audio Copy\Flac\flac.exe
Дополнительные параметры : -8 -V -T "artist=%a" -T "title=%t" -T "album=%g" -T "date=%y" -T "tracknumber=%n" -T "genre=%m" -T "comment=EAC


TOC извлечённого CD

Трек | Старт | Длительность | Начальный сектор | Конечный сектор
---------------------------------------------------------------------
1 | 0:00.37 | 5:30.43 | 37 | 24829
2 | 5:31.05 | 3:12.47 | 24830 | 39276
3 | 8:43.52 | 4:27.48 | 39277 | 59349
4 | 13:11.25 | 3:41.15 | 59350 | 75939
5 | 16:52.40 | 5:34.02 | 75940 | 100991
6 | 22:26.42 | 4:23.63 | 100992 | 120779
7 | 26:50.30 | 0:51.47 | 120780 | 124651
8 | 27:42.02 | 5:15.13 | 124652 | 148289
9 | 32:57.15 | 5:18.70 | 148290 | 172209
10 | 38:16.10 | 4:36.40 | 172210 | 192949
11 | 42:52.50 | 4:18.55 | 192950 | 212354
12 | 47:11.30 | 3:48.35 | 212355 | 229489
13 | 50:59.65 | 0:08.65 | 229490 | 230154
14 | 51:08.55 | 3:56.30 | 230155 | 247884


Характеристики диапазона извлечения и сообщения об ошибках

Выбранный диапазон

Имя файла Y:\Музыка\Annihilator\1994 King Of The Kill\Annihilator - King Of The Kill [APCY-8214].wav

Пиковый уровень 100.0 %
Качество диапазона 100.0 %
CRC копии 4E340234
Копирование... OK

Ошибок не произошло


AccurateRip: сводка

Трек 1 точное извлечение (доверие 2) [C1FE8A63]
Трек 2 точное извлечение (доверие 2) [58387CA7]
Трек 3 точное извлечение (доверие 2) [AF4D3291]
Трек 4 точное извлечение (доверие 2) [C8E3D1B6]
Трек 5 точное извлечение (доверие 2) [FD92451D]
Трек 6 точное извлечение (доверие 2) [ED4F6FB1]
Трек 7 точное извлечение (доверие 2) [5E9197ED]
Трек 8 точное извлечение (доверие 2) [7217FAB9]
Трек 9 точное извлечение (доверие 2) [CF2DDDEF]
Трек 10 точное извлечение (доверие 2) [7BE762B5]
Трек 11 точное извлечение (доверие 2) [D3C66666]
Трек 12 точное извлечение (доверие 2) [104E2B18]
Трек 13 точное извлечение (доверие 2) [03B1D7C9]
Трек 14 точное извлечение (доверие 2) [6EEFDAF0]

Все треки извлечены точно

Конец отчёта


Состав:
Randy Black: Drums
Jeff Waters: Guitar, bass, Vocals

APCY-8214

_________________
Витасу до Даймонда как Алсу до Руссоса | При переразмещении - спрашивать разрешение!!


Top
 Profile  
 
 
PostPosted: 29 Jun 2010 
Motörheadache
User avatar
Joined: 04 Feb 2010
Posts: 1294
Lоcаtion: Впереди- горы,позади-степи
Age: 45
Name: Александр
Из разряда "недослушанных"....
Уж скока лет прошло...может пора решитсо ? :crazy: :umnik:

_________________
Eine Nation, Ein Land, Eine Schnaps!

Наш священный долг:защищать Родину,и соблюдать правила личной гигиены....!


Top
 Profile E-mail  
 
 
PostPosted: 29 Jun 2010 
ыыыы
User avatar
Joined: 17 May 2009
Posts: 952
Lоcаtion: Пушкино, МО
Age: 40
Name: Дмитрий
Image


Жанр: Thrash Metal
Происхождение исполнителя:Канада
Год издания: 1996
Год издания данного носителя: 1996
Страна-производитель носителя: Япония
Аудио кодек: FLAC
Тип рипа: image+.cue
Битрейт аудио: lossless
Продолжительность: 70:05
Рип: Собственный
Лейбл: ROADRUNNER/F.E.M.S
Каталоговый номер: RRCY-1015
Матрица: RRCY-1015 PG1110A IFPI L711 (DENON)

Треклист:
1. W.T.Y.D. 05:07
2. Wicked Mystic 03:43
3. Ligeia 05:35
4. Alison Hell 05:14
5. Word Salad 06:03
6. W.T.Y.D. 04:50
7. The Fun Palace 05:12
8. Never Neverland 05:19
9. I Am In Command 03:40
10. Stonewall 04:23
11. Road To Ruin 04:34
12. Sixes And Sevens 06:02
13. Alison Hell 04:56
14. Live Wire (AC/DC cover) 05:28

"Куй"
REM GENRE "Thrash Metal"
REM DATE 1996
REM DISCID CF106D0E
REM COMMENT "ExactAudioCopy v0.99pb5"
PERFORMER "Annihilator"
TITLE "In Command (Live 1989-1990) [RRCY-1015]"
FILE "Annihilator - In Command (Live 1989-1990) [RRCY-1015].flac" WAVE
TRACK 01 AUDIO
TITLE "W.T.Y.D."
PERFORMER "Annihilator"
INDEX 01 00:00:00
TRACK 02 AUDIO
TITLE "Wicked Mystic"
PERFORMER "Annihilator"
INDEX 01 05:06:67
TRACK 03 AUDIO
TITLE "Ligeia"
PERFORMER "Annihilator"
INDEX 01 08:49:30
TRACK 04 AUDIO
TITLE "Alison Hell"
PERFORMER "Annihilator"
INDEX 01 14:24:45
TRACK 05 AUDIO
TITLE "Word Salad"
PERFORMER "Annihilator"
INDEX 01 19:39:05
TRACK 06 AUDIO
TITLE "W.T.Y.D"
PERFORMER "Annihilator"
INDEX 01 25:42:00
TRACK 07 AUDIO
TITLE "The Fun Palace"
PERFORMER "Annihilator"
INDEX 01 30:31:47
TRACK 08 AUDIO
TITLE "Never, Neverland"
PERFORMER "Annihilator"
INDEX 01 35:43:17
TRACK 09 AUDIO
TITLE "I Am In Command"
PERFORMER "Annihilator"
INDEX 01 41:02:22
TRACK 10 AUDIO
TITLE "Stonewall"
PERFORMER "Annihilator"
INDEX 01 44:42:30
TRACK 11 AUDIO
TITLE "Road To Ruin"
PERFORMER "Annihilator"
INDEX 01 49:05:55
TRACK 12 AUDIO
TITLE "Sixes And Sevens"
PERFORMER "Annihilator"
INDEX 01 53:40:07
TRACK 13 AUDIO
TITLE "Alison Hell"
PERFORMER "Annihilator"
INDEX 01 59:41:55
TRACK 14 AUDIO
TITLE "Live Wire"
PERFORMER "Annihilator"
INDEX 01 64:37:42


"Лог"
Exact Audio Copy V0.99 prebeta 5 from 4. May 2009

Отчёт EAC об извлечении, выполненном 29. июня 2010, 12:24

Annihilator / In Command (Live 1989-1990) [RRCY-1015]

Дисковод: Optiarc DVD RW AD-7200A Adapter: 1 ID: 0

Режим чтения : Достоверность
Использование точного потока : Да
Отключение кэша аудио : Да
Использование указателей C2 : Нет

Коррекция смещения при чтении : 48
Способность читать области Lead-in и Lead-out : Нет
Заполнение пропущенных сэмплов тишиной : Да
Удаление блоков с тишиной в начале и конце : Нет
При вычислениях CRC использовались нулевые сэмплы : Да
Интерфейс : Встроенный Win32-интерфейс для Win NT/2000

Выходной формат : Пользовательский кодировщик
Выбранный битрейт : 128 kBit/s
Качество : Высокий
Добавление ID3-тэга : Нет
Утилита сжатия : C:\Program Files\Exact Audio Copy\Flac\flac.exe
Дополнительные параметры : -8 -V -T "artist=%a" -T "title=%t" -T "album=%g" -T "date=%y" -T "tracknumber=%n" -T "genre=%m" -T "comment=EAC


TOC извлечённого CD

Трек | Старт | Длительность | Начальный сектор | Конечный сектор
---------------------------------------------------------------------
1 | 0:00.00 | 5:06.67 | 0 | 23016
2 | 5:06.67 | 3:42.38 | 23017 | 39704
3 | 8:49.30 | 5:35.15 | 39705 | 64844
4 | 14:24.45 | 5:14.35 | 64845 | 88429
5 | 19:39.05 | 6:02.70 | 88430 | 115649
6 | 25:42.00 | 4:49.47 | 115650 | 137371
7 | 30:31.47 | 5:11.45 | 137372 | 160741
8 | 35:43.17 | 5:19.05 | 160742 | 184671
9 | 41:02.22 | 3:40.08 | 184672 | 201179
10 | 44:42.30 | 4:23.25 | 201180 | 220929
11 | 49:05.55 | 4:34.27 | 220930 | 241506
12 | 53:40.07 | 6:01.48 | 241507 | 268629
13 | 59:41.55 | 4:55.62 | 268630 | 290816
14 | 64:37.42 | 5:27.50 | 290817 | 315391


Характеристики диапазона извлечения и сообщения об ошибках

Выбранный диапазон

Имя файла Y:\Музыка\Annihilator\1996 In Command (Live 1989-1990)\Annihilator - In Command (Live 1989-1990) [RRCY-1015].wav

Пиковый уровень 98.8 %
Качество диапазона 99.9 %
CRC копии A0168D3A
Копирование... OK

Ошибок не произошло


AccurateRip: сводка

Трек 1 точность не определена (достоверность 5) [8D555336], AccurateRip вернул [860A1A63]
Трек 2 точность не определена (достоверность 5) [D6938CEF], AccurateRip вернул [63B7EC03]
Трек 3 точность не определена (достоверность 5) [32F9F44A], AccurateRip вернул [1C0A5FE7]
Трек 4 точность не определена (достоверность 5) [0392F016], AccurateRip вернул [52BEABE1]
Трек 5 точность не определена (достоверность 5) [762BC9A9], AccurateRip вернул [8F0A9FB0]
Трек 6 точность не определена (достоверность 5) [0F1369E5], AccurateRip вернул [02C7E5F7]
Трек 7 точность не определена (достоверность 5) [C38EBADA], AccurateRip вернул [30FAE859]
Трек 8 точность не определена (достоверность 5) [13092D83], AccurateRip вернул [EC497570]
Трек 9 точность не определена (достоверность 5) [DFF1671D], AccurateRip вернул [E67FD888]
Трек 10 точность не определена (достоверность 5) [398E8F7A], AccurateRip вернул [C9427213]
Трек 11 точность не определена (достоверность 5) [F57DE74C], AccurateRip вернул [52D0D1EE]
Трек 12 точность не определена (достоверность 5) [D958AEAE], AccurateRip вернул [FCE7C464]
Трек 13 точность не определена (достоверность 5) [DBE8BB65], AccurateRip вернул [FB43FFEF]
Трек 14 точность не определена (достоверность 5) [F55274AA], AccurateRip вернул [19EF2FA0]

Ни один трек не прошёл проверки на точность
В вашей базе может быть иной вариант штамповки диска

Конец отчёта


Состав:
Randy Rampage: Vocals
Coburn Pharr: Vocals
Jeff Waters: Guitar
Dave Scott Davis: Guitar
Wayne Darley: Bass
Ray Hartmann: Drums

RRCY-1015

_________________
Витасу до Даймонда как Алсу до Руссоса | При переразмещении - спрашивать разрешение!!


Top
 Profile  
 
 
PostPosted: 29 Jun 2010 
Хиппей (support team)
User avatar
Joined: 30 Jul 2007
Posts: 108945
Lоcаtion: Киев (Kyiv, UA)
Age: 45
Name: Andrey
:thanx:

_________________


Top
 Profile E-mail  
 
 
PostPosted: 29 Jun 2010 
Хиппей (support team)
User avatar
Joined: 30 Jul 2007
Posts: 108945
Lоcаtion: Киев (Kyiv, UA)
Age: 45
Name: Andrey
:thanx:

_________________


Top
 Profile E-mail  
 
 
PostPosted: 29 Jun 2010 
Motörheadache
User avatar
Joined: 04 Feb 2010
Posts: 1294
Lоcаtion: Впереди- горы,позади-степи
Age: 45
Name: Александр
:true: :thanx:

_________________
Eine Nation, Ein Land, Eine Schnaps!

Наш священный долг:защищать Родину,и соблюдать правила личной гигиены....!


Top
 Profile E-mail  
 
 
PostPosted: 29 Jun 2010 
Metal Collector
User avatar
Joined: 16 Nov 2008
Posts: 1230
Lоcаtion: Химки
Age: 35
Name: Андрей
:true:

Дим, а что значит сэмпл? Уже не первый раз встречается сия пометка.


Top
 Profile E-mail  
 
 
PostPosted: 29 Jun 2010 
Metal Collector
User avatar
Joined: 16 Nov 2008
Posts: 1230
Lоcаtion: Химки
Age: 35
Name: Андрей
:thanx:


Top
 Profile E-mail  
 
 
PostPosted: 29 Jun 2010 
ыыыы
User avatar
Joined: 17 May 2009
Posts: 952
Lоcаtion: Пушкино, МО
Age: 40
Name: Дмитрий
ну типа демка-пререлиз. Причём фемс на JVC печатается как правило, а демки- и на деноне и на тошибе и на ста - т.е. на других заводах

_________________
Витасу до Даймонда как Алсу до Руссоса | При переразмещении - спрашивать разрешение!!


Top
 Profile  
 
Display posts from previous:  Sort by  
Post new topic Reply to topic  [ 383 posts ]  Go to page Previous  1 ... 4, 5, 6, 7, 8, 9, 10 ... 20  Next

All times are UTC + 3 hours


Who is online

Users browsing this forum: No registered users and 6 guests


You cannot post new topics in this forum
You cannot reply to topics in this forum
You cannot edit your posts in this forum
You cannot delete your posts in this forum
You cannot post attachments in this forum

Search for:
Яндекс.Метрика
Powered by phpBB © 2000, 2002, 2005, 2007 phpBB Group