\m/ 80's metal \m/

Информационно-аналитический форум "80 см пыли" (In Search We Trust) "У нас никто никуда не спешит"
Me For You - http://me-4u.com
It is currently 17 Feb 2019

All times are UTC + 3 hours

Spoiler
Chat - temporary registration for foreign users (please leave your application here)





Forum rules


Уважаемые пользователи ресурса, друзья, коллеги и гости нашего форума. Данный раздел конференции создан с целью рафинации, и посвящён такому стилевому направлению в музыке, как Thrash Metal во всех его проявлениях и ипостасях, а иногда и переходящему на пограничные стили Speed, Power, Groove, Crossover, MDM и т.п.
Главное правило здесь одно: Одна группа – одна тема! Всё остальное созвучно основным нормам поведения на конференции.
Шаблон оформления тем в этом подфоруме должен быть основан на данных сайта www.metal-archives.com и выглядеть следующим образом:

Группа (Страна) - Стилевые рамки - дискография
Slayer (USA) - Thrash Metal - дискография


В теме допустимо размещение всей информации касающейся данного коллектива: анонсы любых альбомов в любых форматах, запросы любых релизов коллектива (кроме релизов текущего и прошлого годов), обсуждения, обзоры, а в остальном всё как обычно. Уважаем друг друга, не грубим, соблюдаем нормы поведения на конференции, оформляем анонсы и запросы красиво и информативно, что бы модераторы не посчитали их троллингом, и не отправили куда положено, выписав Вам предупреждение или ещё что похуже… Прежде чем что-то запросить или запостить, пользуемся поиском! Пользуемся поиском! ПОЛЬЗУЕМСЯ ПОИСКОМ!!! Так слышно меня?.. :pardon:
Интересного, конструктивного и креативного общения! ;)



Post new topic Reply to topic  [ 97 posts ]  Go to page Previous  1, 2, 3, 4, 5  Next
Author Message
 
PostPosted: 17 Jul 2010 
Я набрал 1000 сообщений!
User avatar
Joined: 25 Dec 2008
Posts: 1545
Age: 43
Name: Павел
Спасибо,Серега! :true:


Top
 Profile  
 
 
PostPosted: 17 Jul 2010 
Прокъмитолист
User avatar
Joined: 12 Aug 2007
Posts: 6527
Lоcаtion: Санктъ-Петербуркъ
Age: 51
Name: Олекъ
спасибо за лосика! :thanx: :true:

_________________
прокъметол - это музыко, от которово есть прок (ы)


Top
 Profile  
 
 
PostPosted: 17 Jul 2010 
Прокъмитолист
User avatar
Joined: 12 Aug 2007
Posts: 6527
Lоcаtion: Санктъ-Петербуркъ
Age: 51
Name: Олекъ
Сергей, мои благодарности :umnik: :true:

_________________
прокъметол - это музыко, от которово есть прок (ы)


Top
 Profile  
 
 
PostPosted: 20 Jul 2010 
дядя Миша
User avatar
Joined: 17 Oct 2008
Posts: 3094
Lоcаtion: USSR
Age: 56
Name: Khy
Спасибо за старания!
Звук CD восхитителен!!!!!!!!!!!!! :cry:


Top
 Profile  
 
 
PostPosted: 20 Jul 2010 
Motörheadache
User avatar
Joined: 04 Feb 2010
Posts: 1294
Lоcаtion: Впереди- горы,позади-степи
Age: 45
Name: Александр
:true: :true: :thanx:

_________________
Eine Nation, Ein Land, Eine Schnaps!

Наш священный долг:защищать Родину,и соблюдать правила личной гигиены....!


Top
 Profile E-mail  
 
 
PostPosted: 20 Jul 2010 
Motörheadache
User avatar
Joined: 04 Feb 2010
Posts: 1294
Lоcаtion: Впереди- горы,позади-степи
Age: 45
Name: Александр
Благодарствую :thanx: !

_________________
Eine Nation, Ein Land, Eine Schnaps!

Наш священный долг:защищать Родину,и соблюдать правила личной гигиены....!


Top
 Profile E-mail  
 
 
PostPosted: 01 Aug 2010 
труъ антисионист
User avatar
Joined: 01 Aug 2007
Posts: 4541
Lоcаtion: Откуда и большинство из нас
Age: 38
Name: Дядя Вова
От меня тоже спасибо прими! :true:

_________________
Image
Image


Top
 Profile  
 
 
PostPosted: 12 Apr 2011 
Хиппей (support team)
User avatar
Joined: 30 Jul 2007
Posts: 110295
Lоcаtion: Киев (Kyiv, UA)
Age: 45
Name: Andrey
Даша заглянула в Гугель :thanx:

Attomica (Br) - Attomica (2006 Remastered) - 1987, FLAC (image+.cue), lossless
http://rutracker.org/forum/viewtopic.php?t=3066327

[LP] [16/44.1] Attomica - Limits of Insanity - 1989, FLAC (image+.cue)

http://rutracker.org/forum/viewtopic.php?t=3450164

Переливать, или сами справитесь?

зы. Что-то еще ищем в этом топике? :oops:

_________________


Top
 Profile E-mail  
 
 
PostPosted: 13 Apr 2011 
Хиппей (support team)
User avatar
Joined: 30 Jul 2007
Posts: 110295
Lоcаtion: Киев (Kyiv, UA)
Age: 45
Name: Andrey
Хм, оказывается, и у нас на форуме лоси давно есть :oops:

:arrow: Attomica - Attomica 1987 (2006 Remastered) :losik: viewtopic.php?f=174&t=8371
:arrow: Attomica - Disturbing The Noise 1991 (2004 Re-Issue) :losik: viewtopic.php?f=174&t=8372

_________________


Top
 Profile E-mail  
 
 
PostPosted: 13 Apr 2011 
Хиппей (support team)
User avatar
Joined: 30 Jul 2007
Posts: 110295
Lоcаtion: Киев (Kyiv, UA)
Age: 45
Name: Andrey
Yyz wrote:
А еще видео "The Blast Of Video"-2002 http://metal-archives.com/release.php?id=53434

Саня, если еще актуально, оформи, плиз, запрос в видео-раздел.

Остальное всё по группе найдено.

_________________


Top
 Profile E-mail  
 
 
PostPosted: 13 Apr 2011 
"ну типа, хэви-метал это круто и все такое..." ©
User avatar
Joined: 31 Aug 2008
Posts: 902
Lоcаtion: Запорожье
Name: Саня
Scatterbrain
Ок, вечером оформлю.


Top
 Profile  
 
 
PostPosted: 14 Apr 2011 
Генеральный thrasher
User avatar
Joined: 03 Oct 2008
Posts: 3593
Lоcаtion: Ханты-Мансийский АО
Age: 43
Name: Сергей
Scatterbrain wrote:
Хм, оказывается, и у нас на форуме лоси давно есть :oops:

:arrow: Attomica - Attomica 1987 (2006 Remastered) :losik: viewtopic.php?f=174&t=8371
:arrow: Attomica - Disturbing The Noise 1991 (2004 Re-Issue) :losik: viewtopic.php?f=174&t=8372


Ну ты Саныч даёшь!!!Конечно давно есть...


Top
 Profile  
 
 
PostPosted: 14 Apr 2011 
Хиппей (support team)
User avatar
Joined: 30 Jul 2007
Posts: 110295
Lоcаtion: Киев (Kyiv, UA)
Age: 45
Name: Andrey
thorbeorn wrote:
Конечно давно есть...

А, Серёг, я ж помню, что рипал. Просто в этом топике ссылок не оставили
Вроде и не упущение, но чета не так было :scratch:

_________________


Top
 Profile E-mail  
 
 
PostPosted: 15 Jun 2011 
Хиппей (support team)
User avatar
Joined: 30 Jul 2007
Posts: 110295
Lоcаtion: Киев (Kyiv, UA)
Age: 45
Name: Andrey
Отслушал несколько раз - жесть :true:
Классический скоростной, злобный и технический трэшак начала 90-х (ближайшая аналогия - Sepultura "Arise!"), самые его сливки. Всё отточено, отшлифовано до мельчайших винтиков, нет ни одной даже средней песни, все - хиты.
Посему 10/10

Еще раз огромное спасибо за альбом в отменном качестве (бонусы не считаю, ибо имеется полное концертное шоу) :thanx:

_________________


Top
 Profile E-mail  
 
 
PostPosted: 15 Jun 2011 
А может смените мне статус?..
User avatar
Joined: 24 Dec 2008
Posts: 626
Age: 45
Name: Дмитрий
:thanx:


Top
 Profile  
 
 
PostPosted: 04 Dec 2014 
консэрваторъ
Joined: 11 Aug 2007
Posts: 16559
Lоcаtion: Псков
Age: 44
Name: Сергей
VARVAAR wrote:
Звук CD восхитителен!!!!!!!!!!!!!

Для 87 года в Бразилии может быть и да... только вот первая песня вся ушла в правый канал, 2-ая в левый, потом вроде по середине стало, потом опять чехарда началась... Сначала подумал, не демо лента ли это случаем... Ан нет, настоящий студийный альбом... Прикольно... Спасибо!..

_________________
THRASH 'EM ALL


Top
 Profile E-mail  
 
 
PostPosted: 02 Feb 2017 
Генеральный thrasher
User avatar
Joined: 03 Oct 2008
Posts: 3593
Lоcаtion: Ханты-Мансийский АО
Age: 43
Name: Сергей
Image

Year:2012
Style:Thrash Metal
Country:Brazil
Archive:Flac+Cue+Log+Scans
Source:my CD
Size:346Mb
Label:Oversonic Music

Tracklist:
01. Blood Bath 04:33
02. Down The Drain 04:14
03. Yakuza 04:20
04. Night Killer 04:04
05. Black Death 04:30
06. Wanted 04:15
07. Hurt 'n' Scared 05:30
08. Mysterious Lady 05:08
09. Amen 07:45

"Cue"
REM GENRE "Thrash Metal"
REM DATE 2012
REM DISCID 7B0A6509
REM COMMENT "ExactAudioCopy v1.1"
PERFORMER "Attomica"
TITLE "4"
FILE "Attomica - 4.flac" WAVE
TRACK 01 AUDIO
TITLE "Blood Bath"
PERFORMER "Attomica"
INDEX 01 00:00:00
TRACK 02 AUDIO
TITLE "Down the Drain"
PERFORMER "Attomica"
INDEX 00 04:31:14
INDEX 01 04:33:15
TRACK 03 AUDIO
TITLE "Yakuza"
PERFORMER "Attomica"
INDEX 00 08:46:26
INDEX 01 08:48:26
TRACK 04 AUDIO
TITLE "Night Killer"
PERFORMER "Attomica"
INDEX 00 13:06:32
INDEX 01 13:08:35
TRACK 05 AUDIO
TITLE "Black Death"
PERFORMER "Attomica"
INDEX 00 17:10:60
INDEX 01 17:12:60
TRACK 06 AUDIO
TITLE "Wanted"
PERFORMER "Attomica"
INDEX 00 21:25:23
INDEX 01 21:27:23
TRACK 07 AUDIO
TITLE "Hurt 'n' Scared"
PERFORMER "Attomica"
INDEX 00 25:56:07
INDEX 01 25:58:08
TRACK 08 AUDIO
TITLE "Mysterious Lady"
PERFORMER "Attomica"
INDEX 00 31:04:05
INDEX 01 31:06:05
TRACK 09 AUDIO
TITLE "Amen"
PERFORMER "Attomica"
INDEX 00 36:34:17
INDEX 01 36:36:19

"Log"
Exact Audio Copy V1.1 from 23. June 2015

Отчёт EAC об извлечении, выполненном 2. февраля 2017, 12:31

Attomica / 4

Дисковод: HL-DT-STDVDRAM GTA0N Adapter: 1 ID: 0

Режим чтения : Достоверность
Использование точного потока : Да
Отключение кэша аудио : Да
Использование указателей C2 : Нет

Коррекция смещения при чтении : 102
Способность читать области Lead-in и Lead-out : Нет
Заполнение пропущенных сэмплов тишиной : Да
Удаление блоков с тишиной в начале и конце : Нет
При вычислениях CRC использовались нулевые сэмплы : Да
Интерфейс : Встроенный Win32-интерфейс для Win NT/2000

Выходной формат : Пользовательский кодировщик
Выбранный битрейт : 768 kBit/s
Качество : Высокий
Добавление ID3-тега : Нет
Утилита сжатия : C:\Program Files (x86)\Exact Audio Copy\FLAC\FLAC.EXE
Дополнительные параметры : -6 -V -T "ARTIST=%artist%" -T "TITLE=%title%" -T "ALBUM=%albumtitle%" -T "DATE=%year%" -T "TRACKNUMBER=%tracknr%" -T "GENRE=%genre%" -T "COMMENT=%comment%" -T "BAND=%albuminterpret%" -T "ALBUMARTIST=%albuminterpret%" -T "COMPOSER=%composer%" %haslyrics%--tag-from-file=LYRICS="%lyricsfile%"%haslyrics% -T "DISCNUMBER=%cdnumber%" -T "TOTALDISCS=%totalcds%" -T "TOTALTRACKS=%numtracks%" %hascover%--picture="%coverfile%"%hascover% %source% -o %dest%


TOC извлечённого CD

Трек | Старт | Длительность | Начальный сектор | Конечный сектор
---------------------------------------------------------------------
1 | 0:00.00 | 4:33.15 | 0 | 20489
2 | 4:33.15 | 4:15.11 | 20490 | 39625
3 | 8:48.26 | 4:20.09 | 39626 | 59134
4 | 13:08.35 | 4:04.25 | 59135 | 77459
5 | 17:12.60 | 4:14.38 | 77460 | 96547
6 | 21:27.23 | 4:30.60 | 96548 | 116857
7 | 25:58.08 | 5:07.72 | 116858 | 139954
8 | 31:06.05 | 5:30.14 | 139955 | 164718
9 | 36:36.19 | 7:45.52 | 164719 | 199645


Характеристики диапазона извлечения и сообщения об ошибках

Выбранный диапазон

Имя файла C:\Users\магазин\Music\Attomica - 4.wav

Пиковый уровень 100.0 %
Скорость извлечения 3.9 X
Качество диапазона 100.0 %
CRC теста 7E9DF7C0
CRC копии 7E9DF7C0
Копирование... OK

Ошибок не произошло


AccurateRip: сводка

Трек 1 отсутствует в базе данных
Трек 2 отсутствует в базе данных
Трек 3 отсутствует в базе данных
Трек 4 отсутствует в базе данных
Трек 5 отсутствует в базе данных
Трек 6 отсутствует в базе данных
Трек 7 отсутствует в базе данных
Трек 8 отсутствует в базе данных
Трек 9 отсутствует в базе данных

Ни одного трека нет в базе AccurateRip

Конец отчёта

---- CUETools DB Plugin V2.1.6

[CTDB TOCID: 35ZWzHS8PAGnXkv20_fZ.TxyTxU-] found
Submit result: 35ZWzHS8PAGnXkv20_fZ.TxyTxU- has been confirmed
Track | CTDB Status
1 | (2/2) Accurately ripped
2 | (2/2) Accurately ripped
3 | (2/2) Accurately ripped
4 | (2/2) Accurately ripped
5 | (2/2) Accurately ripped
6 | (2/2) Accurately ripped
7 | (2/2) Accurately ripped
8 | (2/2) Accurately ripped
9 | (2/2) Accurately ripped


Attomica 4


Top
 Profile  
 
 
PostPosted: 02 Feb 2017 
Генеральный thrasher
User avatar
Joined: 03 Oct 2008
Posts: 3593
Lоcаtion: Ханты-Мансийский АО
Age: 43
Name: Сергей
Image

Year:1989 (2016 Remastered)
Style:Thrash Metal
Country:Brazil
Archive:Flac+Cue+Log+Scans
Source:my CD
Size:464Mb
Label:Marquee Records

Tracklist:
01. Atomic Death 06:42
02. Short Dreams 05:25
03. Evil Scars 03:58
04. Rabies 03:20
05. Limits Of Insanity 06:59
06. Knight Riders 05:54
07. Highway 401 04:38
08. W.D. 01:03
Bonus Tracks:
09. Forbidden Hate (demo 1990) 05:24
10. Under Control (demo 1990) 05:52
11. Bloodbath (Live) 03:52
12. Marching Over Blood (Live) 06:12
13. Violence And Terror (Live) 03:43

"Cue"
REM GENRE "Thrash Metal"
REM DATE 2016
REM DISCID C00EC50D
REM COMMENT "ExactAudioCopy v1.1"
PERFORMER "Attomica"
TITLE "Limits Of Insanity"
FILE "Attomica - Limits Of Insanity.flac" WAVE
TRACK 01 AUDIO
TITLE "Atomic Death"
PERFORMER "Attomica"
INDEX 01 00:00:00
TRACK 02 AUDIO
TITLE "Short Dreams"
PERFORMER "Attomica"
INDEX 01 06:42:07
TRACK 03 AUDIO
TITLE "Evil Scars"
PERFORMER "Attomica"
INDEX 01 12:07:09
TRACK 04 AUDIO
TITLE "Rabies"
PERFORMER "Attomica"
INDEX 01 16:05:00
TRACK 05 AUDIO
TITLE "Limits Of Insanity"
PERFORMER "Attomica"
INDEX 01 19:25:31
TRACK 06 AUDIO
TITLE "Knight Riders"
PERFORMER "Attomica"
INDEX 01 26:24:01
TRACK 07 AUDIO
TITLE "Highway 401"
PERFORMER "Attomica"
INDEX 01 32:18:28
TRACK 08 AUDIO
TITLE "W.D."
PERFORMER "Attomica"
INDEX 01 36:56:02
TRACK 09 AUDIO
TITLE "Forbidden Hate"
PERFORMER "Attomica"
INDEX 01 37:58:53
TRACK 10 AUDIO
TITLE "Under Control"
PERFORMER "Attomica"
INDEX 01 43:22:58
TRACK 11 AUDIO
TITLE "Bloodbath"
PERFORMER "Attomica"
INDEX 01 49:14:41
TRACK 12 AUDIO
TITLE "Marching Over Blood"
PERFORMER "Attomica"
INDEX 01 53:06:30
TRACK 13 AUDIO
TITLE "Violence And Terror"
PERFORMER "Attomica"
INDEX 01 59:18:38

"Log"
Exact Audio Copy V1.1 from 23. June 2015

Отчёт EAC об извлечении, выполненном 1. февраля 2017, 9:01

Attomica / Limits Of Insanity

Дисковод: HL-DT-STDVDRAM GTA0N Adapter: 1 ID: 0

Режим чтения : Достоверность
Использование точного потока : Да
Отключение кэша аудио : Да
Использование указателей C2 : Нет

Коррекция смещения при чтении : 102
Способность читать области Lead-in и Lead-out : Нет
Заполнение пропущенных сэмплов тишиной : Да
Удаление блоков с тишиной в начале и конце : Нет
При вычислениях CRC использовались нулевые сэмплы : Да
Интерфейс : Встроенный Win32-интерфейс для Win NT/2000

Выходной формат : Пользовательский кодировщик
Выбранный битрейт : 768 kBit/s
Качество : Высокий
Добавление ID3-тега : Нет
Утилита сжатия : C:\Program Files (x86)\Exact Audio Copy\FLAC\FLAC.EXE
Дополнительные параметры : -6 -V -T "ARTIST=%artist%" -T "TITLE=%title%" -T "ALBUM=%albumtitle%" -T "DATE=%year%" -T "TRACKNUMBER=%tracknr%" -T "GENRE=%genre%" -T "COMMENT=%comment%" -T "BAND=%albuminterpret%" -T "ALBUMARTIST=%albuminterpret%" -T "COMPOSER=%composer%" %haslyrics%--tag-from-file=LYRICS="%lyricsfile%"%haslyrics% -T "DISCNUMBER=%cdnumber%" -T "TOTALDISCS=%totalcds%" -T "TOTALTRACKS=%numtracks%" %hascover%--picture="%coverfile%"%hascover% %source% -o %dest%


TOC извлечённого CD

Трек | Старт | Длительность | Начальный сектор | Конечный сектор
---------------------------------------------------------------------
1 | 0:00.00 | 6:42.07 | 0 | 30156
2 | 6:42.07 | 5:25.02 | 30157 | 54533
3 | 12:07.09 | 3:57.66 | 54534 | 72374
4 | 16:05.00 | 3:20.31 | 72375 | 87405
5 | 19:25.31 | 6:58.45 | 87406 | 118800
6 | 26:24.01 | 5:54.27 | 118801 | 145377
7 | 32:18.28 | 4:37.49 | 145378 | 166201
8 | 36:56.02 | 1:02.51 | 166202 | 170902
9 | 37:58.53 | 5:24.05 | 170903 | 195207
10 | 43:22.58 | 5:51.58 | 195208 | 221590
11 | 49:14.41 | 3:51.64 | 221591 | 238979
12 | 53:06.30 | 6:12.08 | 238980 | 266887
13 | 59:18.38 | 3:42.62 | 266888 | 283599


Характеристики диапазона извлечения и сообщения об ошибках

Выбранный диапазон

Имя файла C:\Users\магазин\Music\Attomica - Limits Of Insanity.wav

Пиковый уровень 100.0 %
Скорость извлечения 4.3 X
Качество диапазона 100.0 %
CRC теста C73470E9
CRC копии C73470E9
Копирование... OK

Ошибок не произошло


AccurateRip: сводка

Трек 1 отсутствует в базе данных
Трек 2 отсутствует в базе данных
Трек 3 отсутствует в базе данных
Трек 4 отсутствует в базе данных
Трек 5 отсутствует в базе данных
Трек 6 отсутствует в базе данных
Трек 7 отсутствует в базе данных
Трек 8 отсутствует в базе данных
Трек 9 отсутствует в базе данных
Трек 10 отсутствует в базе данных
Трек 11 отсутствует в базе данных
Трек 12 отсутствует в базе данных
Трек 13 отсутствует в базе данных

Ни одного трека нет в базе AccurateRip

Конец отчёта

---- CUETools DB Plugin V2.1.6

[CTDB TOCID: Ofe34axEZRn0zTmKWOrMVZxhwgU-] disk not present in database
Submit result: Ofe34axEZRn0zTmKWOrMVZxhwgU- has been uploaded


Limits Of Insanity


Top
 Profile  
 
 
PostPosted: 02 Feb 2017 
Прокъмитолист
User avatar
Joined: 12 Aug 2007
Posts: 6527
Lоcаtion: Санктъ-Петербуркъ
Age: 51
Name: Олекъ
:thanx:

_________________
прокъметол - это музыко, от которово есть прок (ы)


Top
 Profile  
 
 
PostPosted: 02 Feb 2017 
Прокъмитолист
User avatar
Joined: 12 Aug 2007
Posts: 6527
Lоcаtion: Санктъ-Петербуркъ
Age: 51
Name: Олекъ
:thanx:

_________________
прокъметол - это музыко, от которово есть прок (ы)


Top
 Profile  
 
Display posts from previous:  Sort by  
Post new topic Reply to topic  [ 97 posts ]  Go to page Previous  1, 2, 3, 4, 5  Next

All times are UTC + 3 hours


Who is online

Users browsing this forum: No registered users and 3 guests


You cannot post new topics in this forum
You cannot reply to topics in this forum
You cannot edit your posts in this forum
You cannot delete your posts in this forum
You cannot post attachments in this forum

Search for:
Яндекс.Метрика
Powered by phpBB © 2000, 2002, 2005, 2007 phpBB Group