\m/ 80's metal \m/

Информационно-аналитический форум "80 см пыли" (In Search We Trust) "У нас никто никуда не спешит"
Me For You - http://me-4u.com
It is currently 26 Feb 2020

All times are UTC + 3 hours

Spoiler
Chat - temporary registration for foreign users (please leave your application here)





Forum rules


Уважаемые пользователи ресурса, друзья, коллеги и гости нашего форума. Данный раздел конференции создан с целью рафинации, и посвящён такому стилевому направлению в музыке, как Thrash Metal во всех его проявлениях и ипостасях, а иногда и переходящему на пограничные стили Speed, Power, Groove, Crossover, MDM и т.п.
Главное правило здесь одно: Одна группа – одна тема! Всё остальное созвучно основным нормам поведения на конференции.
Шаблон оформления тем в этом подфоруме должен быть основан на данных сайта www.metal-archives.com и выглядеть следующим образом:

Группа (Страна) - Стилевые рамки - дискография
Slayer (USA) - Thrash Metal - дискография


В теме допустимо размещение всей информации касающейся данного коллектива: анонсы любых альбомов в любых форматах, запросы любых релизов коллектива (кроме релизов текущего и прошлого годов), обсуждения, обзоры, а в остальном всё как обычно. Уважаем друг друга, не грубим, соблюдаем нормы поведения на конференции, оформляем анонсы и запросы красиво и информативно, что бы модераторы не посчитали их троллингом, и не отправили куда положено, выписав Вам предупреждение или ещё что похуже… Прежде чем что-то запросить или запостить, пользуемся поиском! Пользуемся поиском! ПОЛЬЗУЕМСЯ ПОИСКОМ!!! Так слышно меня?.. :pardon:
Интересного, конструктивного и креативного общения! ;)

Image



Post new topic Reply to topic  [ 23 posts ]  Go to page Previous  1, 2
Author Message
 
PostPosted: 22 Jun 2019 
консэрваторъ
User avatar
Joined: 11 Aug 2007
Posts: 17546
Lоcаtion: Псков
Age: 45
Name: Сергей
А в 15-ом они выпустили альбом каверов Hasta La Muerte, который в 16-ом был переиздан с новым названием, и в котором они весьма круто переиграли культовые боевики трэш-металла всех времён и народов!..

Lethal - Metal Up Your Ass 2016

Image

:arrov: https://toxicrecords.bandcamp.com/album ... p-your-ass

_________________
THRASH 'EM ALL


Top
 Profile E-mail  
 
 
PostPosted: 16 Dec 2019 
Хиппей (support team)
User avatar
Joined: 30 Jul 2007
Posts: 117629
Lоcаtion: Киев (Kyiv, UA)
Age: 46
Name: Andrey
Зачем-то послушал альбом 2010 года. Грувасто паверо-трэшовый и.. Ну его :yyy:
Но перезалью. Зачем-то и где-то я ж его качал. Не перезалив, удалить не могу :pardon:

4+/10

_________________


Top
 Profile E-mail  
 
 
PostPosted: 16 Dec 2019 
Хиппей (support team)
User avatar
Joined: 30 Jul 2007
Posts: 117629
Lоcаtion: Киев (Kyiv, UA)
Age: 46
Name: Andrey
LETHAL [2010] [CD] Inyeccion Lethal [EAC-APE] by alaschapas [MeTaLMaDNeSS.TeaM]

Image Image

mirror: Ur-Files l Uloz l Telega l Narod

log
Exact Audio Copy V0.99 prebeta 5 from 4. May 2009

EAC extraction logfile from 18. March 2011, 13:02

Lethal / Inyeccion Lethal

Used drive : TSSTcorpCDDVDW SH-S223C Adapter: 1 ID: 1

Read mode : Secure
Utilize accurate stream : Yes
Defeat audio cache : Yes
Make use of C2 pointers : No

Read offset correction : 697
Overread into Lead-In and Lead-Out : No
Fill up missing offset samples with silence : Yes
Delete leading and trailing silent blocks : No
Null samples used in CRC calculations : Yes
Used interface : Native Win32 interface for Win NT & 2000

Used output format : Monkey's Audio Lossless Encoder
Selected bitrate : High Lossless Compression
Quality : High
Add ID3 tag : Yes
Command line compressor : C:\Archivos de programa\Exact Audio Copy\MAC.EXE


TOC of the extracted CD

Track | Start | Length | Start sector | End sector
---------------------------------------------------------
1 | 0:00.00 | 3:55.55 | 0 | 17679
2 | 3:55.55 | 3:31.05 | 17680 | 33509
3 | 7:26.60 | 3:29.73 | 33510 | 49257
4 | 10:56.58 | 4:45.73 | 49258 | 70705
5 | 15:42.56 | 4:34.07 | 70706 | 91262
6 | 20:16.63 | 3:55.19 | 91263 | 108906
7 | 24:12.07 | 3:32.37 | 108907 | 124843
8 | 27:44.44 | 4:14.05 | 124844 | 143898
9 | 31:58.49 | 5:37.57 | 143899 | 169230
10 | 37:36.31 | 5:00.40 | 169231 | 191770
11 | 42:36.71 | 7:18.28 | 191771 | 224648
12 | 49:55.24 | 3:13.52 | 224649 | 239175
13 | 55:41.01 | 11:09.15 | 250576 | 300765


Range status and errors

Selected range

Filename C:\Documents and Settings\admin\Escritorio\Lethal - Inyeccion Lethal.wav

Peak level 100.0 %
Range quality 100.0 %
Copy CRC FD18B626
Copy OK

No errors occurred


AccurateRip summary

Track 1 not present in database
Track 2 not present in database
Track 3 not present in database
Track 4 not present in database
Track 5 not present in database
Track 6 not present in database
Track 7 not present in database
Track 8 not present in database
Track 9 not present in database
Track 10 not present in database
Track 11 not present in database
Track 12 not present in database

None of the tracks are present in the AccurateRip database

End of status report

cue
REM DATE 2010
REM DISCID C80FAA0D
REM COMMENT "ExactAudioCopy v0.99pb5"
PERFORMER "Lethal "
TITLE "Inyeccion Lethal"
FILE "Lethal - Inyeccion Lethal.ape" WAVE
TRACK 01 AUDIO
TITLE "Inyeccion lethal"
PERFORMER "Lethal "
INDEX 01 00:00:00
TRACK 02 AUDIO
TITLE "Ciudad sangrienta"
PERFORMER "Lethal "
INDEX 01 03:55:55
TRACK 03 AUDIO
TITLE "Busca tu camino"
PERFORMER "Lethal "
INDEX 01 07:26:60
TRACK 04 AUDIO
TITLE "Algo podremos hacer"
PERFORMER "Lethal "
INDEX 01 10:56:58
TRACK 05 AUDIO
TITLE "Al polvo volveran"
PERFORMER "Lethal "
INDEX 01 15:42:56
TRACK 06 AUDIO
TITLE "Un rayo en la oscuridad"
PERFORMER "Lethal "
INDEX 01 20:16:63
TRACK 07 AUDIO
TITLE "Fantasmas de ciudad"
PERFORMER "Lethal "
INDEX 01 24:12:07
TRACK 08 AUDIO
TITLE "Tumbas del olvido"
PERFORMER "Lethal "
INDEX 01 27:44:44
TRACK 09 AUDIO
TITLE "Sueсos rotos"
PERFORMER "Lethal "
INDEX 01 31:58:49
TRACK 10 AUDIO
TITLE "Rompiendo el silencio"
PERFORMER "Lethal "
INDEX 01 37:36:31
TRACK 11 AUDIO
TITLE "Warriors in the night"
PERFORMER "Lethal "
INDEX 01 42:36:71
TRACK 12 AUDIO
TITLE "Maza"
PERFORMER "Lethal "
INDEX 01 49:55:24


Image Image Image

Image Image

Image Image

_________________


Top
 Profile E-mail  
 
Display posts from previous:  Sort by  
Post new topic Reply to topic  [ 23 posts ]  Go to page Previous  1, 2

All times are UTC + 3 hours


Who is online

Users browsing this forum: No registered users and 1 guest


You cannot post new topics in this forum
You cannot reply to topics in this forum
You cannot edit your posts in this forum
You cannot delete your posts in this forum
You cannot post attachments in this forum

Search for:
Яндекс.Метрика
Powered by phpBB © 2000, 2002, 2005, 2007 phpBB Group