\m/ 80's metal \m/

Информационно-аналитический форум "80 см пыли" (In Search We Trust) "У нас никто никуда не спешит"
Me For You - http://me-4u.com
It is currently 19 Dec 2018

All times are UTC + 3 hours

Spoiler
Chat - temporary registration for foreign users (please leave your application here)





Forum rules


Уважаемые пользователи ресурса, друзья, коллеги и гости нашего форума. Данный раздел конференции создан с целью рафинации, и посвящён такому стилевому направлению в музыке, как Thrash Metal во всех его проявлениях и ипостасях, а иногда и переходящему на пограничные стили Speed, Power, Groove, Crossover, MDM и т.п.
Главное правило здесь одно: Одна группа – одна тема! Всё остальное созвучно основным нормам поведения на конференции.
Шаблон оформления тем в этом подфоруме должен быть основан на данных сайта www.metal-archives.com и выглядеть следующим образом:

Группа (Страна) - Стилевые рамки - дискография
Slayer (USA) - Thrash Metal - дискография


В теме допустимо размещение всей информации касающейся данного коллектива: анонсы любых альбомов в любых форматах, запросы любых релизов коллектива (кроме релизов текущего и прошлого годов), обсуждения, обзоры, а в остальном всё как обычно. Уважаем друг друга, не грубим, соблюдаем нормы поведения на конференции, оформляем анонсы и запросы красиво и информативно, что бы модераторы не посчитали их троллингом, и не отправили куда положено, выписав Вам предупреждение или ещё что похуже… Прежде чем что-то запросить или запостить, пользуемся поиском! Пользуемся поиском! ПОЛЬЗУЕМСЯ ПОИСКОМ!!! Так слышно меня?.. :pardon:
Интересного, конструктивного и креативного общения! ;)



Post new topic Reply to topic  [ 10 posts ] 
Author Message
 
PostPosted: 29 Jul 2017 
Генеральный thrasher
User avatar
Joined: 03 Oct 2008
Posts: 3539
Lоcаtion: Ханты-Мансийский АО
Age: 43
Name: Сергей
Image

Year:2007
Style:Thrash Metal
Country:Germany
Archive:Flac+Cue+Log+Scans
Source:my CD
Size:263Mb
Label:Nicrothal Records

Tracklist:
01. War Part 1 02:58
02. War Part 2 02:27
03. In Death It Ends 06:43
04. In This Hell 03:45
05. Rise Of Dead Nation 04:35
06. Trail Of Blood 04:30
07. Apocalypse ...Not Today 04:27
08. Forbidden Times 05:50

"Cue"
REM GENRE "Thrash Metal"
REM DATE 2007
REM DISCID 7B084208
REM COMMENT "ExactAudioCopy v1.1"
PERFORMER "Tormentor"
TITLE "Dystopia"
FILE "Tormentor - Dystopia.flac" WAVE
TRACK 01 AUDIO
TITLE "War Pt. 1"
PERFORMER "Tormentor"
INDEX 01 00:00:00
TRACK 02 AUDIO
TITLE "War Pt. 2"
PERFORMER "Tormentor"
INDEX 00 02:55:57
INDEX 01 02:57:57
TRACK 03 AUDIO
TITLE "In Death It Ends"
PERFORMER "Tormentor"
INDEX 00 05:22:23
INDEX 01 05:24:23
TRACK 04 AUDIO
TITLE "In This Hell"
PERFORMER "Tormentor"
INDEX 00 12:05:34
INDEX 01 12:07:34
TRACK 05 AUDIO
TITLE "Rise Of Dead Nation"
PERFORMER "Tormentor"
INDEX 00 15:50:34
INDEX 01 15:52:34
TRACK 06 AUDIO
TITLE "Trail Of Blood"
PERFORMER "Tormentor"
INDEX 00 20:25:01
INDEX 01 20:27:01
TRACK 07 AUDIO
TITLE "Apocalypse... Not Today"
PERFORMER "Tormentor"
INDEX 00 24:55:18
INDEX 01 24:57:18
TRACK 08 AUDIO
TITLE "Forbidden Times (Bonus)"
PERFORMER "Tormentor"
INDEX 00 29:22:02
INDEX 01 29:24:02

"Log"
Exact Audio Copy V1.1 from 23. June 2015

Отчёт EAC об извлечении, выполненном 29. июля 2017, 6:31

Tormentor / Dystopia

Дисковод: HL-DT-STDVDRAM GTA0N Adapter: 1 ID: 0

Режим чтения : Достоверность
Использование точного потока : Да
Отключение кэша аудио : Да
Использование указателей C2 : Нет

Коррекция смещения при чтении : 102
Способность читать области Lead-in и Lead-out : Нет
Заполнение пропущенных сэмплов тишиной : Да
Удаление блоков с тишиной в начале и конце : Нет
При вычислениях CRC использовались нулевые сэмплы : Да
Интерфейс : Встроенный Win32-интерфейс для Win NT/2000

Выходной формат : Пользовательский кодировщик
Выбранный битрейт : 768 kBit/s
Качество : Высокий
Добавление ID3-тега : Нет
Утилита сжатия : C:\Program Files (x86)\Exact Audio Copy\FLAC\FLAC.EXE
Дополнительные параметры : -V -8 -T "Date=%year%" -T "Genre=%genre%" %source%


TOC извлечённого CD

Трек | Старт | Длительность | Начальный сектор | Конечный сектор
---------------------------------------------------------------------
1 | 0:00.00 | 2:57.57 | 0 | 13331
2 | 2:57.57 | 2:26.41 | 13332 | 24322
3 | 5:24.23 | 6:43.11 | 24323 | 54558
4 | 12:07.34 | 3:45.00 | 54559 | 71433
5 | 15:52.34 | 4:34.42 | 71434 | 92025
6 | 20:27.01 | 4:30.17 | 92026 | 112292
7 | 24:57.18 | 4:26.59 | 112293 | 132301
8 | 29:24.02 | 5:50.19 | 132302 | 158570


Характеристики диапазона извлечения и сообщения об ошибках

Выбранный диапазон

Имя файла C:\Users\магазин\Music\Tormentor - Dystopia.wav

Пиковый уровень 100.0 %
Скорость извлечения 3.4 X
Качество диапазона 100.0 %
CRC теста FFEABB49
CRC копии FFEABB49
Копирование... OK

Ошибок не произошло


AccurateRip: сводка

Трек 1 отсутствует в базе данных
Трек 2 отсутствует в базе данных
Трек 3 отсутствует в базе данных
Трек 4 отсутствует в базе данных
Трек 5 отсутствует в базе данных
Трек 6 отсутствует в базе данных
Трек 7 отсутствует в базе данных
Трек 8 отсутствует в базе данных

Ни одного трека нет в базе AccurateRip

Конец отчёта

---- CUETools DB Plugin V2.1.6

[CTDB TOCID: qeWteKXszdu79oU0P8csDIc1iek-] disk not present in database
Submit result: qeWteKXszdu79oU0P8csDIc1iek- has been uploaded


Dystopia

Image

Year:2009
Style:Thrash Metal
Country:Germany
Archive:Flac+Cue+Log+Scans
Source:my CD
Size:248Mb
Label:Nicrothal Records

Tracklist:
01. Destilled Dream 05:42
02. Out Of Control 03:28
03. Time 04:47
04. Eternity 04:36
05. Age Of Aggression 04:47
06. LIE! 05:42
07. Ambassador Of Death 04:34

"Cue"
REM GENRE "Thrash Metal"
REM DATE 2009
REM DISCID 4907E007
REM COMMENT "ExactAudioCopy v1.1"
PERFORMER "Tormentor"
TITLE "Brood of a Social Distortion"
FILE "Tormentor - Brood of a Social Distortion.flac" WAVE
TRACK 01 AUDIO
TITLE "Destilled Dream"
PERFORMER "Tormentor"
INDEX 01 00:00:00
TRACK 02 AUDIO
TITLE "Out Of Control"
PERFORMER "Tormentor"
INDEX 01 05:41:64
TRACK 03 AUDIO
TITLE "Time"
PERFORMER "Tormentor"
INDEX 01 09:09:59
TRACK 04 AUDIO
TITLE "Eternity"
PERFORMER "Tormentor"
INDEX 01 13:57:07
TRACK 05 AUDIO
TITLE "Age Of Aggression"
PERFORMER "Tormentor"
INDEX 01 18:33:15
TRACK 06 AUDIO
TITLE "LIE!"
PERFORMER "Tormentor"
INDEX 01 23:20:22
TRACK 07 AUDIO
TITLE "Ambassador Of Death"
PERFORMER "Tormentor"
INDEX 01 29:01:72

"Log"
Exact Audio Copy V1.1 from 23. June 2015

Отчёт EAC об извлечении, выполненном 28. июля 2017, 15:30

Tormentor / Brood of a Social Distortion

Дисковод: HL-DT-STDVDRAM GTA0N Adapter: 1 ID: 0

Режим чтения : Достоверность
Использование точного потока : Да
Отключение кэша аудио : Да
Использование указателей C2 : Нет

Коррекция смещения при чтении : 102
Способность читать области Lead-in и Lead-out : Нет
Заполнение пропущенных сэмплов тишиной : Да
Удаление блоков с тишиной в начале и конце : Нет
При вычислениях CRC использовались нулевые сэмплы : Да
Интерфейс : Встроенный Win32-интерфейс для Win NT/2000

Выходной формат : Пользовательский кодировщик
Выбранный битрейт : 768 kBit/s
Качество : Высокий
Добавление ID3-тега : Нет
Утилита сжатия : C:\Program Files (x86)\Exact Audio Copy\FLAC\FLAC.EXE
Дополнительные параметры : -V -8 -T "Date=%year%" -T "Genre=%genre%" %source%


TOC извлечённого CD

Трек | Старт | Длительность | Начальный сектор | Конечный сектор
---------------------------------------------------------------------
1 | 0:00.00 | 5:41.64 | 0 | 25638
2 | 5:41.64 | 3:27.70 | 25639 | 41233
3 | 9:09.59 | 4:47.23 | 41234 | 62781
4 | 13:57.07 | 4:36.08 | 62782 | 83489
5 | 18:33.15 | 4:47.07 | 83490 | 105021
6 | 23:20.22 | 5:41.50 | 105022 | 130646
7 | 29:01.72 | 4:34.32 | 130647 | 151228


Характеристики диапазона извлечения и сообщения об ошибках

Выбранный диапазон

Имя файла C:\Users\магазин\Music\Tormentor - Brood of a Social Distortion.wav

Пиковый уровень 98.0 %
Скорость извлечения 3.5 X
Качество диапазона 100.0 %
CRC теста 9F6D57FA
CRC копии 9F6D57FA
Копирование... OK

Ошибок не произошло


AccurateRip: сводка

Трек 1 отсутствует в базе данных
Трек 2 отсутствует в базе данных
Трек 3 отсутствует в базе данных
Трек 4 отсутствует в базе данных
Трек 5 отсутствует в базе данных
Трек 6 отсутствует в базе данных
Трек 7 отсутствует в базе данных

Ни одного трека нет в базе AccurateRip

Конец отчёта

---- CUETools DB Plugin V2.1.6

[CTDB TOCID: jD4jCWjLccoVBzeuWXT6__mrcY4-] disk not present in database
Submit result: jD4jCWjLccoVBzeuWXT6__mrcY4- has been uploaded


Brood of a Social Distortion


Top
 Profile  
 
 
PostPosted: 29 Jul 2017 
Я набрал 1000 сообщений!
User avatar
Joined: 04 Jul 2009
Posts: 1167
Age: 45
Name: dima
Гениальный thrasher, может всё же соизволите как нибудь ответить на личку?)


Top
 Profile E-mail  
 
 
PostPosted: 30 Jul 2017 
консэрваторъ
Joined: 11 Aug 2007
Posts: 16336
Lоcаtion: Псков
Age: 44
Name: Сергей
Спасибо большое, забрал!.. :thanx: :thanx:
Кстати, город в название темы (помимо указания федеральной земли) будет актуален, если у нас на форуме появится вот этот Торментыр... :dash: https://www.metal-archives.com/bands/Tormentor/5331
Написал парням про демы...

_________________
THRASH 'EM ALL


Top
 Profile E-mail  
 
 
PostPosted: 30 Jul 2017 
Прокъмитолист
User avatar
Joined: 12 Aug 2007
Posts: 6515
Lоcаtion: Санктъ-Петербуркъ
Age: 51
Name: Олекъ
:thanx:

_________________
прокъметол - это музыко, от которово есть прок (ы)


Top
 Profile  
 
 
PostPosted: 19 Mar 2018 
Хиппей (support team)
User avatar
Joined: 30 Jul 2007
Posts: 109003
Lоcаtion: Киев (Kyiv, UA)
Age: 45
Name: Andrey
thorbeorn wrote:
Dystopia

:thanx:

mirror: Giga l Drop l Narod l M-Cloud

_________________


Top
 Profile E-mail  
 
 
PostPosted: 19 Mar 2018 
Хиппей (support team)
User avatar
Joined: 30 Jul 2007
Posts: 109003
Lоcаtion: Киев (Kyiv, UA)
Age: 45
Name: Andrey
thorbeorn wrote:
Brood of a Social Distortion

:thanx:

mirror: Giga l Drop l Narod l M-Cloud

_________________


Top
 Profile E-mail  
 
 
PostPosted: 22 Mar 2018 
Хиппей (support team)
User avatar
Joined: 30 Jul 2007
Posts: 109003
Lоcаtion: Киев (Kyiv, UA)
Age: 45
Name: Andrey
thorbeorn wrote:
Dystopia

Мягкий и мелодичный, хоть и весьма прямолинейный Thrash Metal с паверными элементами и поющим (часто играющим голосом своим) вокалистом. Ну примерно как Джон Буш в Антраксе.
Ничего особенного, но по отдельности песни очень цепляет. А если слушать альбом полностью, то так себе впечатление..
Но альбом ракиндролььный и вполне заводной :dance:

6/10

Тем не менее, надеюсь, второй больше раскроет группу :kro:

_________________


Top
 Profile E-mail  
 
 
PostPosted: 22 Mar 2018 
Хиппей (support team)
User avatar
Joined: 30 Jul 2007
Posts: 109003
Lоcаtion: Киев (Kyiv, UA)
Age: 45
Name: Andrey


Эх, ну красота ведь. Жаль только, что не студийная здесь версия..

_________________


Top
 Profile E-mail  
 
 
PostPosted: 22 Mar 2018 
Хиппей (support team)
User avatar
Joined: 30 Jul 2007
Posts: 109003
Lоcаtion: Киев (Kyiv, UA)
Age: 45
Name: Andrey
Эх, кабы все песни были такими, как эта и ещё 3 других, альбом ушёл бы моментально в топы, а так пока проcто на балл оценку повышу и начну слушать вторjq альбом...

7/10

_________________


Top
 Profile E-mail  
 
 
PostPosted: 22 Mar 2018 
Хиппей (support team)
User avatar
Joined: 30 Jul 2007
Posts: 109003
Lоcаtion: Киев (Kyiv, UA)
Age: 45
Name: Andrey
thorbeorn wrote:
Brood of a Social Distortion

Утяжелились ребята и.. начали напоминать бюджетную версию группы Rage :scratch:

6/10

Какое-то странноватое развитие получилось у группы :pardon:

_________________


Top
 Profile E-mail  
 
Display posts from previous:  Sort by  
Post new topic Reply to topic  [ 10 posts ] 

All times are UTC + 3 hours


Who is online

Users browsing this forum: No registered users and 2 guests


You cannot post new topics in this forum
You cannot reply to topics in this forum
You cannot edit your posts in this forum
You cannot delete your posts in this forum
You cannot post attachments in this forum

Search for:
Яндекс.Метрика
Powered by phpBB © 2000, 2002, 2005, 2007 phpBB Group