\m/ 80's metal \m/

Информационно-аналитический форум "80 см пыли" (In Search We Trust) "У нас никто никуда не спешит"
Me For You - http://me-4u.com
It is currently 10 Dec 2018

All times are UTC + 3 hours

Spoiler
Chat - temporary registration for foreign users (please leave your application here)





Forum rules


Уважаемые пользователи ресурса, друзья, коллеги и гости нашего форума. Данный раздел конференции создан с целью рафинации, и посвящён такому стилевому направлению в музыке, как Thrash Metal во всех его проявлениях и ипостасях, а иногда и переходящему на пограничные стили Speed, Power, Groove, Crossover, MDM и т.п.
Главное правило здесь одно: Одна группа – одна тема! Всё остальное созвучно основным нормам поведения на конференции.
Шаблон оформления тем в этом подфоруме должен быть основан на данных сайта www.metal-archives.com и выглядеть следующим образом:

Группа (Страна) - Стилевые рамки - дискография
Slayer (USA) - Thrash Metal - дискография


В теме допустимо размещение всей информации касающейся данного коллектива: анонсы любых альбомов в любых форматах, запросы любых релизов коллектива (кроме релизов текущего и прошлого годов), обсуждения, обзоры, а в остальном всё как обычно. Уважаем друг друга, не грубим, соблюдаем нормы поведения на конференции, оформляем анонсы и запросы красиво и информативно, что бы модераторы не посчитали их троллингом, и не отправили куда положено, выписав Вам предупреждение или ещё что похуже… Прежде чем что-то запросить или запостить, пользуемся поиском! Пользуемся поиском! ПОЛЬЗУЕМСЯ ПОИСКОМ!!! Так слышно меня?.. :pardon:
Интересного, конструктивного и креативного общения! ;)



Post new topic Reply to topic  [ 21 posts ]  Go to page 1, 2  Next
Author Message
 
PostPosted: 27 Jul 2017 
Генеральный thrasher
User avatar
Joined: 03 Oct 2008
Posts: 3532
Lоcаtion: Ханты-Мансийский АО
Age: 43
Name: Сергей
Песни,написанные по мотивам произведений Лавкрафта.Зацепила меня эта банда.Спасибо Серёге за помощь в покупке!

Image

Year:2015
Style:Thrash Metal
Country:Spain
Archive:Flac+Cue+Log+Scans
Source:my CD
Size:358Mb
Label:Lullabye Records

Tracklist:
01. Leviathan Comes 02:45
02. The Dunwich Horror 04:10
03. ...Of Madness 05:40
04. The Whisperer in Darkness 04:47
05. Riding a Broom 05:27
06. The Hounds of Tindalos 05:15
07. The Shadow Over Innsmouth 05:45
08. He Lies Dreaming 06:54
09. The Call 04:38
10. The Music of Erich Zann 03:22

"Cue"
REM GENRE "Thrash Metal"
REM DATE 2015
REM DISCID 830B7F0A
REM COMMENT "ExactAudioCopy v1.1"
PERFORMER "Retrofaith"
TITLE "...Of Madness"
FILE "Retrofaith - ...Of Madness.flac" WAVE
TRACK 01 AUDIO
TITLE "Leviathan Comes"
PERFORMER "Retrofaith"
FLAGS DCP
INDEX 01 00:00:00
TRACK 02 AUDIO
TITLE "The Dunwich Horror"
PERFORMER "Retrofaith"
FLAGS DCP
INDEX 00 02:45:58
INDEX 01 02:47:58
TRACK 03 AUDIO
TITLE "... Of Madness"
PERFORMER "Retrofaith"
FLAGS DCP
INDEX 00 06:57:47
INDEX 01 06:59:47
TRACK 04 AUDIO
TITLE "The Whisperer In Darkness"
PERFORMER "Retrofaith"
FLAGS DCP
INDEX 00 12:39:39
INDEX 01 12:41:39
TRACK 05 AUDIO
TITLE "Riding a Broom"
PERFORMER "Retrofaith"
FLAGS DCP
INDEX 00 17:29:02
INDEX 01 17:31:02
TRACK 06 AUDIO
TITLE "The Hounds of Tindalos"
PERFORMER "Retrofaith"
FLAGS DCP
INDEX 00 22:58:40
INDEX 01 23:00:40
TRACK 07 AUDIO
TITLE "The Shadow Over Innsmouth"
PERFORMER "Retrofaith"
FLAGS DCP
INDEX 00 28:15:49
INDEX 01 28:17:49
TRACK 08 AUDIO
TITLE "He Lies Dreaming"
PERFORMER "Retrofaith"
FLAGS DCP
INDEX 00 34:02:33
INDEX 01 34:04:33
TRACK 09 AUDIO
TITLE "The Call"
PERFORMER "Retrofaith"
FLAGS DCP
INDEX 00 40:58:60
INDEX 01 41:00:60
TRACK 10 AUDIO
TITLE "The Music Of Erich Zann"
PERFORMER "Retrofaith"
FLAGS DCP
INDEX 00 45:39:24
INDEX 01 45:41:24

"Log"
Exact Audio Copy V1.1 from 23. June 2015

Отчёт EAC об извлечении, выполненном 27. июля 2017, 10:01

Retrofaith / ...Of Madness

Дисковод: HL-DT-STDVDRAM GTA0N Adapter: 1 ID: 0

Режим чтения : Достоверность
Использование точного потока : Да
Отключение кэша аудио : Да
Использование указателей C2 : Нет

Коррекция смещения при чтении : 102
Способность читать области Lead-in и Lead-out : Нет
Заполнение пропущенных сэмплов тишиной : Да
Удаление блоков с тишиной в начале и конце : Нет
При вычислениях CRC использовались нулевые сэмплы : Да
Интерфейс : Встроенный Win32-интерфейс для Win NT/2000

Выходной формат : Пользовательский кодировщик
Выбранный битрейт : 768 kBit/s
Качество : Высокий
Добавление ID3-тега : Нет
Утилита сжатия : C:\Program Files (x86)\Exact Audio Copy\FLAC\FLAC.EXE
Дополнительные параметры : -V -8 -T "Date=%year%" -T "Genre=%genre%" %source%


TOC извлечённого CD

Трек | Старт | Длительность | Начальный сектор | Конечный сектор
---------------------------------------------------------------------
1 | 0:00.00 | 2:47.58 | 0 | 12582
2 | 2:47.58 | 4:11.64 | 12583 | 31471
3 | 6:59.47 | 5:41.67 | 31472 | 57113
4 | 12:41.39 | 4:49.38 | 57114 | 78826
5 | 17:31.02 | 5:29.38 | 78827 | 103539
6 | 23:00.40 | 5:17.09 | 103540 | 127323
7 | 28:17.49 | 5:46.59 | 127324 | 153332
8 | 34:04.33 | 6:56.27 | 153333 | 184559
9 | 41:00.60 | 4:40.39 | 184560 | 205598
10 | 45:41.24 | 3:21.57 | 205599 | 220730


Характеристики диапазона извлечения и сообщения об ошибках

Выбранный диапазон

Имя файла C:\Users\магазин\Music\Retrofaith - ...Of Madness.wav

Пиковый уровень 100.0 %
Скорость извлечения 3.9 X
Качество диапазона 100.0 %
CRC теста 96F9FB72
CRC копии 96F9FB72
Копирование... OK

Ошибок не произошло


AccurateRip: сводка

Трек 1 отсутствует в базе данных
Трек 2 отсутствует в базе данных
Трек 3 отсутствует в базе данных
Трек 4 отсутствует в базе данных
Трек 5 отсутствует в базе данных
Трек 6 отсутствует в базе данных
Трек 7 отсутствует в базе данных
Трек 8 отсутствует в базе данных
Трек 9 отсутствует в базе данных
Трек 10 отсутствует в базе данных

Ни одного трека нет в базе AccurateRip

Конец отчёта

---- CUETools DB Plugin V2.1.6

[CTDB TOCID: C9zpBmjTA5hPN0YBRGqDLPqdtpc-] disk not present in database
Submit result: C9zpBmjTA5hPN0YBRGqDLPqdtpc- has been uploaded


...Of Madness


Top
 Profile  
 
 
PostPosted: 27 Jul 2017 
Прокъмитолист
User avatar
Joined: 12 Aug 2007
Posts: 6512
Lоcаtion: Санктъ-Петербуркъ
Age: 51
Name: Олекъ
:thanx:

_________________
прокъметол - это музыко, от которово есть прок (ы)


Top
 Profile  
 
 
PostPosted: 28 Jul 2017 
консэрваторъ
Joined: 11 Aug 2007
Posts: 16308
Lоcаtion: Псков
Age: 44
Name: Сергей
Во!.. А это трасх был... :shok: И я тогда лью, спасибо!.. :thanx: :thanx:
https://www.metal-archives.com/bands/Re ... 3540359828

_________________
THRASH 'EM ALL


Top
 Profile E-mail  
 
 
PostPosted: 28 Jul 2017 
Доктор энтомологии
User avatar
Joined: 22 Jan 2009
Posts: 9475
Lоcаtion: Даугавпилс
Age: 43
Name: Алексей
Ктулху - наше всё! :lob: Спасибо большое за представление неизвестной группы :thanx: В целом очень интересно звучит, хоть и местами очень сумбурно :crazy: Это трэшак, но с разными забавными примесями от хэви до блэка (гитарка часто блэкушная), что-то еще, неуловимое, от групп типа Helstar, а в купе с театральным вокалом, всё это представляется очень занимательно :dance: Не тривиальная работа, что уже большой плюс. Мне нравится, как лавкрафтовскую тему раскручивают дэтовые банды по типу прошлогодних канадцев Chthe'ilist, хтонь и мрак подземных мифов чувствуется кожей, ну и ушами :dance:


Top
 Profile  
 
 
PostPosted: 28 Jul 2017 
Генеральный thrasher
User avatar
Joined: 03 Oct 2008
Posts: 3532
Lоcаtion: Ханты-Мансийский АО
Age: 43
Name: Сергей
Лёш,меня с первого прослушивания вштырило. Не устаю переслушивать.Купил епишку 13-го года.Жду...


Top
 Profile  
 
 
PostPosted: 28 Jul 2017 
Доктор энтомологии
User avatar
Joined: 22 Jan 2009
Posts: 9475
Lоcаtion: Даугавпилс
Age: 43
Name: Алексей
Да, такое дело нудно слушать много раз, тут масса интересностей :dance: Интересно будет услышать отзывы ребят на форуме, музыка не обычна ибо


Top
 Profile  
 
 
PostPosted: 29 Jul 2017 
консэрваторъ
Joined: 11 Aug 2007
Posts: 16308
Lоcаtion: Псков
Age: 44
Name: Сергей
thorbeorn wrote:
епишку 13-го года.Жду

И я... :oops: :oops:
А демка 12-ого некупляемая чёто... :arrov: https://retrofaith.bandcamp.com/album/necrometal
А... дак онажешь в дописи на епихе!.. :true:

Image

_________________
THRASH 'EM ALL


Top
 Profile E-mail  
 
 
PostPosted: 02 Aug 2017 
Я набрал 1000 сообщений!
Joined: 09 Jul 2008
Posts: 2468
Age: 45
Name: Сергей
Entomologist wrote:
очень сумбурно

вторая половина альбома, ксатти, менее трэшова и более упорядоченна чтоль


Top
 Profile  
 
 
PostPosted: 06 Sep 2017 
Генеральный thrasher
User avatar
Joined: 03 Oct 2008
Posts: 3532
Lоcаtion: Ханты-Мансийский АО
Age: 43
Name: Сергей
Епишку рипнул...осталось сделать сканы и прописать названия трэков.В ближайшие пару дней опубликую.


Top
 Profile  
 
 
PostPosted: 06 Sep 2017 
Доктор энтомологии
User avatar
Joined: 22 Jan 2009
Posts: 9475
Lоcаtion: Даугавпилс
Age: 43
Name: Алексей
:lob:


Top
 Profile  
 
 
PostPosted: 06 Sep 2017 
консэрваторъ
Joined: 11 Aug 2007
Posts: 16308
Lоcаtion: Псков
Age: 44
Name: Сергей
thorbeorn wrote:
В ближайшие пару дней

:( а в пару недель никак низя?.. :oops: шучу я... трасху мiтолисздтам, да поболе!.. :true:

_________________
THRASH 'EM ALL


Top
 Profile E-mail  
 
 
PostPosted: 07 Sep 2017 
Генеральный thrasher
User avatar
Joined: 03 Oct 2008
Posts: 3532
Lоcаtion: Ханты-Мансийский АО
Age: 43
Name: Сергей
Image

Year:2013
Style:Thrash Metal
Country:Spain
Archive:Flac+Cue+Log+Scans
Source:my CD
Size:368Mb
Label:Self-Release

Tracklist:
01. Crossing The Final Path 05:03
02. Morbid Screams 04:15
03. Demon's Mask 04:05
04. No Sunrise... In This Darkness 06:04
05. Mournful Sounds 05:51
06. Ad Umbras 04:14
Necrometal demo (2012):
07. Opened Graves 01:42
08. Rise Up 04:55
09. Soulless Lord 02:45
10. Crimson Altar 03:43
11. Eyes In The Dark 04:57
12. Necrometal 04:29

"Log"
Exact Audio Copy V1.1 from 23. June 2015

Отчёт EAC об извлечении, выполненном 6. сентября 2017, 14:47

Retrofaith / Crossing The Final Path

Дисковод: HL-DT-STDVDRAM GTA0N Adapter: 1 ID: 0

Режим чтения : Достоверность
Использование точного потока : Да
Отключение кэша аудио : Да
Использование указателей C2 : Нет

Коррекция смещения при чтении : 102
Способность читать области Lead-in и Lead-out : Нет
Заполнение пропущенных сэмплов тишиной : Да
Удаление блоков с тишиной в начале и конце : Нет
При вычислениях CRC использовались нулевые сэмплы : Да
Интерфейс : Встроенный Win32-интерфейс для Win NT/2000

Выходной формат : Пользовательский кодировщик
Выбранный битрейт : 768 kBit/s
Качество : Высокий
Добавление ID3-тега : Нет
Утилита сжатия : C:\Program Files (x86)\Exact Audio Copy\FLAC\FLAC.EXE
Дополнительные параметры : -V -8 -T "Date=%year%" -T "Genre=%genre%" %source%


TOC извлечённого CD

Трек | Старт | Длительность | Начальный сектор | Конечный сектор
---------------------------------------------------------------------
1 | 0:00.00 | 5:02.72 | 0 | 22721
2 | 5:02.72 | 4:15.03 | 22722 | 41849
3 | 9:18.00 | 4:05.18 | 41850 | 60242
4 | 13:23.18 | 6:04.00 | 60243 | 87542
5 | 19:27.18 | 5:51.12 | 87543 | 113879
6 | 25:18.30 | 4:13.74 | 113880 | 132928
7 | 29:32.29 | 1:42.24 | 132929 | 140602
8 | 31:14.53 | 4:54.56 | 140603 | 162708
9 | 36:09.34 | 2:45.27 | 162709 | 175110
10 | 38:54.61 | 3:43.32 | 175111 | 191867
11 | 42:38.18 | 4:56.53 | 191868 | 214120
12 | 47:34.71 | 4:28.44 | 214121 | 234264


Характеристики диапазона извлечения и сообщения об ошибках

Выбранный диапазон

Имя файла C:\Users\магазин\Music\Retrofaith - Crossing The Final Path.wav

Пиковый уровень 100.0 %
Скорость извлечения 3.7 X
Качество диапазона 100.0 %
CRC теста F7E0D369
CRC копии F7E0D369
Копирование... OK

Ошибок не произошло


AccurateRip: сводка

Трек 1 отсутствует в базе данных
Трек 2 отсутствует в базе данных
Трек 3 отсутствует в базе данных
Трек 4 отсутствует в базе данных
Трек 5 отсутствует в базе данных
Трек 6 отсутствует в базе данных
Трек 7 отсутствует в базе данных
Трек 8 отсутствует в базе данных
Трек 9 отсутствует в базе данных
Трек 10 отсутствует в базе данных
Трек 11 отсутствует в базе данных
Трек 12 отсутствует в базе данных

Ни одного трека нет в базе AccurateRip

Конец отчёта

---- CUETools DB Plugin V2.1.6

[CTDB TOCID: iZ9FMtNdjjKVKkeH7u9dHCNsxHE-] disk not present in database
Submit result: iZ9FMtNdjjKVKkeH7u9dHCNsxHE- has been uploaded


Crossing The Final Path


Top
 Profile  
 
 
PostPosted: 07 Sep 2017 
консэрваторъ
Joined: 11 Aug 2007
Posts: 16308
Lоcаtion: Псков
Age: 44
Name: Сергей
:thanx: :thanx: :thanx: :true:
Что такое облом и как с ним бороться... :dash: :esel:

Image

А Вы наверное про такой нет и забыли уже?.. :pardon:

_________________
THRASH 'EM ALL


Top
 Profile E-mail  
 
 
PostPosted: 07 Sep 2017 
Хиппей (support team)
User avatar
Joined: 30 Jul 2007
Posts: 108785
Lоcаtion: Киев (Kyiv, UA)
Age: 45
Name: Andrey
thorbeorn wrote:
...Of Madness

:thanx:

_________________


Top
 Profile E-mail  
 
 
PostPosted: 07 Sep 2017 
Хиппей (support team)
User avatar
Joined: 30 Jul 2007
Posts: 108785
Lоcаtion: Киев (Kyiv, UA)
Age: 45
Name: Andrey
thorbeorn wrote:
Crossing The Final Path

:thanx:

_________________


Top
 Profile E-mail  
 
 
PostPosted: 07 Sep 2017 
Хиппей (support team)
User avatar
Joined: 30 Jul 2007
Posts: 108785
Lоcаtion: Киев (Kyiv, UA)
Age: 45
Name: Andrey
splatty wrote:
А Вы наверное про такой нет и забыли уже?..

Встал? И докачки нету? :cry:

_________________


Top
 Profile E-mail  
 
 
PostPosted: 07 Sep 2017 
Прокъмитолист
User avatar
Joined: 12 Aug 2007
Posts: 6512
Lоcаtion: Санктъ-Петербуркъ
Age: 51
Name: Олекъ
Серёг, спасибо :thanx: и с возвращением :true:

_________________
прокъметол - это музыко, от которово есть прок (ы)


Top
 Profile  
 
 
PostPosted: 07 Sep 2017 
Генеральный thrasher
User avatar
Joined: 03 Oct 2008
Posts: 3532
Lоcаtion: Ханты-Мансийский АО
Age: 43
Name: Сергей
Да приятно оказаться дома! И куча посылок лежит.Сынулька всё забирал...


Top
 Profile  
 
 
PostPosted: 07 Sep 2017 
консэрваторъ
Joined: 11 Aug 2007
Posts: 16308
Lоcаtion: Псков
Age: 44
Name: Сергей
Scatterbrain wrote:
И докачки нету?

Есть... в соседнем селе... :pardon: За Ретрофайтхом поеду сегодня, куле делать то... :benya:

_________________
THRASH 'EM ALL


Top
 Profile E-mail  
 
 
PostPosted: 10 Sep 2017 
консэрваторъ
Joined: 11 Aug 2007
Posts: 16308
Lоcаtion: Псков
Age: 44
Name: Сергей
Демка 12-ого - чистый блэк, не проникся... хотя в последнем заглавном треке понапуситили замогильного холодка...
Ипиха 13-ого по звучанию как-то необъёмисто у них вышла, всё тот же блэк с приличным добавлением прога...
Полнометражник 15-ого - уже прога значительно больше, хоть и хоррора хоть отбавляй... в принципе послушать можно, приятная смесь Меконг Дельты с чем-то там ещё...

_________________
THRASH 'EM ALL


Top
 Profile E-mail  
 
Display posts from previous:  Sort by  
Post new topic Reply to topic  [ 21 posts ]  Go to page 1, 2  Next

All times are UTC + 3 hours


Who is online

Users browsing this forum: No registered users and 5 guests


You cannot post new topics in this forum
You cannot reply to topics in this forum
You cannot edit your posts in this forum
You cannot delete your posts in this forum
You cannot post attachments in this forum

Search for:
Яндекс.Метрика
Powered by phpBB © 2000, 2002, 2005, 2007 phpBB Group